×

¿Problemas para descargar con Mozilla, EDGE? Deshabilita la opción "Abrir vinculos en una pestaña nueva" tal como lo muestra ésta imagen.

Cómo entrenar a tu cachorro/esposo (2018) 1080p Latino

888 vistas

Información de Cómo entrenar a tu cachorro/esposo (2018) 1080p Latino

Datos de la película

  • Calidad: 1080p
  • Audio: Español Latino AC3 2.0 iTUNES - Ingles AC3 5.1 BLURAY
  • Subtitulos: No
  • Resolución: 1920x1080
  • Formato: MKV
  • Codec: H.264
  • Encoder: cinemaniahdd
  • Mediainfo: Clic para Mostrar Datos Ver
  • How to Pick Your Second Husband First (2018) 1080p Latino.mkv
    Format                      : Matroska
    Format version              : Version 4
    File size                   : 2.33 GiB
    Duration                    : 1 h 22 min
    Overall bit rate            : 4 068 kb/s
    Movie name                  : How to Pick Your Second Husband First (2018) - CinemaniaHDD.Net
    Encoded date                : UTC 2019-11-18 23:38:54
    Writing application         : mkvmerge v38.0.0 ('The Silent Type') 64-bit
    Writing library             : libebml v1.3.9 + libmatroska v1.5.2

    Video
    ID                          : 1
    Format                      : AVC
    Format/Info                 : Advanced Video Codec
    Format profile              : Main@L4
    Format settings             : CABAC / 4 Ref Frames
    Format settings, CABAC      : Yes
    Format settings, ReFrames   : 4 frames
    Codec ID                    : V_MPEG4/ISO/AVC
    Duration                    : 1 h 22 min
    Bit rate                    : 3 500 kb/s
    Width                       : 1 920 pixels
    Height                      : 1 080 pixels
    Display aspect ratio        : 16:9
    Frame rate mode             : Constant
    Frame rate                  : 25.000 FPS
    Color space                 : YUV
    Chroma subsampling          : 4:2:0
    Bit depth                   : 8 bits
    Scan type                   : Progressive
    Bits/(Pixel*Frame)          : 0.068
    Stream size                 : 1.97 GiB (84%)
    Title                       : CinemaniaHDD.Net
    Writing library             : x264 core 157 r2935 545de2f
    Encoding settings           : cabac=1 / ref=3 / deblock=1:0:0 / analyse=0x1:0x111 / me=hex / subme=7 / psy=1 / psy_rd=1.00:0.00 / mixed_ref=1 / me_range=16 / chroma_me=1 / trellis=1 / 8x8dct=0 / cqm=0 / deadzone=21,11 / fast_pskip=1 / chroma_qp_offset=-2 / threads=34 / lookahead_threads=5 / sliced_threads=0 / nr=0 / decimate=1 / interlaced=0 / bluray_compat=0 / constrained_intra=0 / bframes=3 / b_pyramid=2 / b_adapt=1 / b_bias=0 / direct=1 / weightb=1 / open_gop=0 / weightp=2 / keyint=250 / keyint_min=25 / scenecut=40 / intra_refresh=0 / rc_lookahead=40 / rc=abr / mbtree=1 / bitrate=3500 / ratetol=1.0 / qcomp=0.60 / qpmin=0 / qpmax=69 / qpstep=4 / vbv_maxrate=20000 / vbv_bufsize=25000 / nal_hrd=none / filler=0 / ip_ratio=1.40 / aq=1:1.00
    Default                     : Yes
    Forced                      : No
    Color range                 : Limited
    Color primaries             : BT.709
    Transfer characteristics    : BT.709
    Matrix coefficients         : BT.709

    Audio #1
    ID                          : 2
    Format                      : AC-3
    Format/Info                 : Audio Coding 3
    Commercial name             : Dolby Digital
    Codec ID                    : A_AC3
    Duration                    : 1 h 22 min
    Bit rate mode               : Constant
    Bit rate                    : 256 kb/s
    Channel(s)                  : 2 channels
    Channel layout              : L R
    Sampling rate               : 48.0 kHz
    Frame rate                  : 31.250 FPS (1536 SPF)
    Bit depth                   : 16 bits
    Compression mode            : Lossy
    Stream size                 : 150 MiB (6%)
    Title                       : Español latino [CinemaniaHDD]
    Language                    : Spanish
    Service kind                : Complete Main
    Default                     : Yes
    Forced                      : No

    Audio #2
    ID                          : 3
    Format                      : AC-3
    Format/Info                 : Audio Coding 3
    Commercial name             : Dolby Digital
    Codec ID                    : A_AC3
    Duration                    : 1 h 22 min
    Bit rate mode               : Constant
    Bit rate                    : 384 kb/s
    Channel(s)                  : 6 channels
    Channel layout              : L R C LFE Ls Rs
    Sampling rate               : 48.0 kHz
    Frame rate                  : 31.250 FPS (1536 SPF)
    Bit depth                   : 16 bits
    Compression mode            : Lossy
    Stream size                 : 226 MiB (9%)
    Title                       : Inglés [CinemaniaHDD]
    Language                    : English
    Service kind                : Complete Main
    Default                     : No
    Forced                      : No

    Menu
    00:00:00.000                : :Chapter 1
    00:15:04.320                : :Chapter 2
    00:30:55.680                : :Chapter 3
    00:48:01.560                : :Chapter 4
    01:04:59.960                : :Chapter 5
    01:19:58.200                : :Chapter 6

     

  • Peso: 2.33 GiB

Sinopsis

Un terapeuta matrimonial intenta arreglar su propio matrimonio enfocándose en cómo cambiar a su esposo

Ficha técnica

Video trailer de la película

Enlaces de descarga

Rip de Bluray

Descargar Cómo entrenar a tu cachorro/esposo (2018) 1080p Latino




Aportes de DPeliculasHDmega la pass es:dpeliculashdmega.org Aportes de CinemaniaHD la pass es:cinemaniahdd.com
Guardado en : HD 1080p , Romance

Películas relacionadas

  • DC Liga De Supermascotas (2022) HD 1080p Latino

    DC Liga De Supermascotas (2022) HD 1080p Latino

    2022
    DC Liga De Supermascotas (2022) HD 1080p Latino

    1h 45m 2022

    Descargar DC Liga De Supermascotas (2022) HD 1080p Latino. Krypto el Superperro y Superman son amigos...

    Director: Sam Levine

    Género: Acción

    Actores: Yvette Nicole Brown

  • Plan A, Plan B (2022) NF WEB-DL 1080p Latino

    Plan A, Plan B (2022) NF WEB-DL 1080p Latino

    2022
    Plan A, Plan B (2022) NF WEB-DL 1080p Latino

    1h 45m 2022

    Descargar Plan A, Plan B (2022) NF WEB-DL 1080p Latino. Cuando un casamentero serio se muda a una oficina...

    Director: Shashanka Ghosh

    Género: Comedia

    Actores: Tamannaah Bhatia

  • Wire Room (2022) HD 1080p Latino

    Wire Room (2022) HD 1080p Latino

    2022
    Wire Room (2022) HD 1080p Latino

    1h 37m 2022

    Descargar Wire Room (2022) HD 1080p Latino. Mientras está de servicio en la sala de cables, un agente...

    Director: Matt Eskandari

    Género: Acción

    Actores: Texas Battle

descargar Cómo entrenar a tu cachorro/esposo (2018) 1080p Latino 1080p 1080p gratis, Cómo entrenar a tu cachorro/esposo (2018) 1080p Latino 1080p mega 1 link, Cómo entrenar a tu cachorro/esposo (2018) 1080p Latino 1080p pelicula completa, descargar Cómo entrenar a tu cachorro/esposo (2018) 1080p Latino 1080p gratis en mega.

Cómo entrenar a tu cachorro/esposo (2018) 1080p Latino pelicula full hd, Cómo entrenar a tu cachorro/esposo (2018) 1080p Latino mega latino, Cómo entrenar a tu cachorro/esposo (2018) 1080p Latino 4k latino, Cómo entrenar a tu cachorro/esposo (2018) 1080p Latino pelicula completa, Cómo entrenar a tu cachorro/esposo (2018) 1080p Latino descargar gratis, descargar Cómo entrenar a tu cachorro/esposo (2018) 1080p Latino pelicula latino, Cómo entrenar a tu cachorro/esposo (2018) 1080p Latino 1 link mega, Cómo entrenar a tu cachorro/esposo (2018) 1080p Latino 1 link google drive, Cómo entrenar a tu cachorro/esposo (2018) 1080p Latino hd 1080p latino.
Comentarios 0