×

¿Problemas para descargar con Mozilla, EDGE? Deshabilita la opción "Abrir vinculos en una pestaña nueva" tal como lo muestra ésta imagen.

Cómo robar un millón (1966) Full HD 1080p Latino-CMHDD

52 vistas

Información de Cómo robar un millón (1966) Full HD 1080p Latino-CMHDD

Datos de la película

  • Calidad: Full 1080p
  • Audio: Se especifica abajo de la Sinopsis
  • Subtitulos: Español Latino SRT - Ingles SRT
  • Resolución: 1920x1080p
  • Formato: MKV
  • Codec: H.264
  • Encoder: CinefiloCool
  • Mediainfo: Clic para Mostrar Datos Ver
  • How.to.Steal.A.Million.1966.Bluray.FullHD.1080p.x264.Latino-CC@CMHDD.mkv
    Format                      : Matroska
    Format version              : Version 4
    File size                   : 3.86 GiB
    Duration                    : 2 h 3 min
    Overall bit rate mode       : Variable
    Overall bit rate            : 4 480 kb/s
    Movie name                  : How to Steal A Million (1966) CinemaniaHDD.Net
    Encoded date                : UTC 2024-05-23 21:32:39
    Writing application         : mkvmerge v56.1.0 ('My Friend') 64-bit
    Writing library             : libebml v1.4.2 + libmatroska v1.6.4
    Attachments                 : CINEMANIAHD.png

    Video
    ID                          : 1
    Format                      : AVC
    Format/Info                 : Advanced Video Codec
    Format profile              : High@L4.2
    Format settings             : CABAC / 4 Ref Frames
    Format settings, CABAC      : Yes
    Format settings, Reference  : 4 frames
    Codec ID                    : V_MPEG4/ISO/AVC
    Duration                    : 2 h 3 min
    Bit rate mode               : Variable
    Bit rate                    : 3 445 kb/s
    Width                       : 1 920 pixels
    Height                      : 1 080 pixels
    Display aspect ratio        : 16:9
    Frame rate mode             : Constant
    Frame rate                  : 23.976 (24000/1001) FPS
    Color space                 : YUV
    Chroma subsampling          : 4:2:0
    Bit depth                   : 8 bits
    Scan type                   : Progressive
    Bits/(Pixel*Frame)          : 0.069
    Stream size                 : 2.97 GiB (77%)
    Title                       : Full HD1080p [CinemaniaHDD]
    Writing library             : x264 core 163 r3059 b684ebe0
    Encoding settings           : cabac=1 / ref=4 / deblock=1:-2:-2 / analyse=0x3:0x133 / me=esa / subme=10 / psy=1 / psy_rd=1.00:0.25 / mixed_ref=1 / me_range=24 / chroma_me=1 / trellis=2 / 8x8dct=1 / cqm=0 / deadzone=6,6 / fast_pskip=1 / chroma_qp_offset=-4 / threads=24 / lookahead_threads=4 / sliced_threads=0 / nr=0 / decimate=0 / interlaced=0 / bluray_compat=0 / constrained_intra=0 / bframes=8 / b_pyramid=2 / b_adapt=2 / b_bias=0 / direct=3 / weightb=1 / open_gop=0 / weightp=2 / keyint=240 / keyint_min=24 / scenecut=40 / intra_refresh=0 / rc_lookahead=60 / rc=crf / mbtree=1 / crf=20.0 / qcomp=0.80 / qpmin=0 / qpmax=69 / qpstep=4 / vbv_maxrate=62500 / vbv_bufsize=78125 / crf_max=0.0 / nal_hrd=vbr / filler=0 / ip_ratio=1.10 / aq=1:0.50
    Default                     : Yes
    Forced                      : Yes
    Color range                 : Limited
    Color primaries             : BT.709
    Transfer characteristics    : BT.709
    Matrix coefficients         : BT.709

    Audio #1
    ID                          : 2
    Format                      : AC-3
    Format/Info                 : Audio Coding 3
    Commercial name             : Dolby Digital
    Codec ID                    : A_AC3
    Duration                    : 2 h 3 min
    Bit rate mode               : Constant
    Bit rate                    : 256 kb/s
    Channel(s)                  : 2 channels
    Channel layout              : L R
    Sampling rate               : 48.0 kHz
    Frame rate                  : 31.250 FPS (1536 SPF)
    Compression mode            : Lossy
    Stream size                 : 226 MiB (6%)
    Title                       : Español Latino [CinemaniaHDD]
    Language                    : Spanish
    Service kind                : Complete Main
    Default                     : Yes
    Forced                      : Yes

    Audio #2
    ID                          : 3
    Format                      : DTS
    Format/Info                 : Digital Theater Systems
    Codec ID                    : A_DTS
    Duration                    : 2 h 3 min
    Bit rate mode               : Constant
    Bit rate                    : 768 kb/s
    Channel(s)                  : 2 channels
    Channel layout              : L R
    Sampling rate               : 48.0 kHz
    Frame rate                  : 93.750 FPS (512 SPF)
    Bit depth                   : 24 bits
    Compression mode            : Lossy
    Stream size                 : 678 MiB (17%)
    Title                       : Ingles [CinemaniaHDD]
    Language                    : zxx
    Default                     : No
    Forced                      : No

    Text #1
    ID                          : 4
    Format                      : UTF-8
    Codec ID                    : S_TEXT/UTF8
    Codec ID/Info               : UTF-8 Plain Text
    Duration                    : 5 min 25 s
    Bit rate                    : 0 b/s
    Count of elements           : 3
    Stream size                 : 30.0 Bytes (0%)
    Title                       : Forzados-SRT [CinemaniaHDD]
    Language                    : Spanish
    Default                     : Yes
    Forced                      : Yes

    Text #2
    ID                          : 5
    Format                      : UTF-8
    Codec ID                    : S_TEXT/UTF8
    Codec ID/Info               : UTF-8 Plain Text
    Duration                    : 2 h 2 min
    Bit rate                    : 49 b/s
    Count of elements           : 1150
    Stream size                 : 44.4 KiB (0%)
    Title                       : Español-SRT [CinemaniaHDD]
    Language                    : Spanish
    Default                     : No
    Forced                      : No

    Text #3
    ID                          : 6
    Format                      : PGS
    Muxing mode                 : zlib
    Codec ID                    : S_HDMV/PGS
    Codec ID/Info               : Picture based subtitle format used on BDs/HD-DVDs
    Duration                    : 2 h 1 min
    Bit rate                    : 42.0 kb/s
    Count of elements           : 2608
    Stream size                 : 36.5 MiB (1%)
    Title                       : Ingles [CinemaniaHDD]
    Language                    : English
    Default                     : No
    Forced                      : No

    Menu
    00:00:00.000                : Chapter 1
    00:03:21.868                : Chapter 2
    00:11:03.329                : Chapter 3
    00:15:21.712                : Chapter 4
    00:21:15.065                : Chapter 5
    00:25:11.885                : Chapter 6
    00:31:31.598                : Chapter 7
    00:36:03.494                : Chapter 8
    00:41:27.943                : Chapter 9
    00:48:18.395                : Chapter 10
    00:52:48.498                : Chapter 11
    00:58:24.626                : Chapter 12
    01:06:13.344                : Chapter 13
    01:10:42.613                : Chapter 14
    01:14:58.494                : Chapter 15
    01:18:45.554                : Chapter 16
    01:24:02.162                : Chapter 17
    01:30:46.399                : Chapter 18
    01:33:00.950                : Chapter 19
    01:36:59.855                : Chapter 20
    01:40:33.986                : Chapter 21
    01:44:58.375                : Chapter 22
    01:50:33.084                : Chapter 23
    01:59:34.542                : Chapter 24

  • Peso: 3.86 GiB

Sinopsis

Descargar Cómo robar un millón (1966) Full HD 1080p Latino-CMHDD. El padre de Nicole, un legendario coleccionista de arte, presta su preciada Venus de Cellini a un prestigioso museo parisino. Pero la Venus no es auténtica, la ha esculpido su abuelo, que era un falsificador lo mismo que su padre. Antes de que se descubra la estafa, Nicole contrata los servicios de Simon Demott, un ladrón de guante blanco, para robar el original.

Audio Español Latino AC3 2.0 Web-DL – Ingles DTS 2.0 Bluray

Ficha técnica

Video trailer de la película

Enlaces de descarga

Rip de Bluray

Descargar Cómo robar un millón (1966) Full HD 1080p Latino-CMHDD




Aportes de DPeliculasHDmega la pass es:dpeliculashdmega.org Aportes de CinemaniaHD la pass es:cinemaniahdd.com Aportes recientes:cinemaniahdd.net

Películas relacionadas

descargar Cómo robar un millón (1966) Full HD 1080p Latino-CMHDD Full 1080p 1080p gratis, Cómo robar un millón (1966) Full HD 1080p Latino-CMHDD Full 1080p mega 1 link, Cómo robar un millón (1966) Full HD 1080p Latino-CMHDD Full 1080p pelicula completa, descargar Cómo robar un millón (1966) Full HD 1080p Latino-CMHDD Full 1080p gratis en mega.

Cómo robar un millón (1966) Full HD 1080p Latino-CMHDD pelicula full hd, Cómo robar un millón (1966) Full HD 1080p Latino-CMHDD mega latino, Cómo robar un millón (1966) Full HD 1080p Latino-CMHDD 4k latino, Cómo robar un millón (1966) Full HD 1080p Latino-CMHDD pelicula completa, Cómo robar un millón (1966) Full HD 1080p Latino-CMHDD descargar gratis, descargar Cómo robar un millón (1966) Full HD 1080p Latino-CMHDD pelicula latino, Cómo robar un millón (1966) Full HD 1080p Latino-CMHDD 1 link mega, Cómo robar un millón (1966) Full HD 1080p Latino-CMHDD 1 link google drive, Cómo robar un millón (1966) Full HD 1080p Latino-CMHDD hd 1080p latino.
Comentarios 0