×

¿Problemas para descargar con Mozilla, EDGE? Deshabilita la opción "Abrir vinculos en una pestaña nueva" tal como lo muestra ésta imagen.

How to Sell Drugs Online (Fast) (2020) Temporada 2 WEB-DL 1080p Latino

305 vistas

Información de How to Sell Drugs Online (Fast) (2020) Temporada 2 WEB-DL 1080p Latino

Datos de la película

  • Calidad: WEBDL
  • Audio: Se especifica abajo de la Sinopsis
  • Subtitulos: Español Latino SRT- FORZADOS SRT
  • Resolución: 1920x1080
  • Formato: MKV
  • Codec: H.264
  • Encoder: cinemaniahdd
  • Mediainfo: Clic para Mostrar Datos Ver
  • Cómo vender drogas (online) T02E05 NF WEB-DL 1080p Latino [CNMNHDD].mkv
    Format                      : Matroska
    Format version              : Version 4
    File size                   : 1.88 GiB
    Duration                    : 34 min 58 s
    Overall bit rate mode       : Variable
    Overall bit rate            : 7 701 kb/s
    Movie name                  : Cómo vender drogas (online) T02E05 - CinemaniaHDD.Net
    Encoded date                : UTC 2020-07-23 00:08:06
    Writing application         : mkvmerge v30.1.0 ('Forever And More') 64-bit
    Writing library             : libebml v1.3.6 + libmatroska v1.4.9 / Lavf58.28.101

    Video
    ID                          : 1
    Format                      : AVC
    Format/Info                 : Advanced Video Codec
    Format profile              : Main@L4
    Format settings             : CABAC / 3 Ref Frames
    Format settings, CABAC      : Yes
    Format settings, Reference  : 3 frames
    Codec ID                    : V_MPEG4/ISO/AVC
    Duration                    : 34 min 58 s
    Bit rate mode               : Variable
    Bit rate                    : 7 150 kb/s
    Maximum bit rate            : 10.7 Mb/s
    Width                       : 1 920 pixels
    Height                      : 1 080 pixels
    Display aspect ratio        : 16:9
    Frame rate mode             : Constant
    Frame rate                  : 25.000 FPS
    Color space                 : YUV
    Chroma subsampling          : 4:2:0
    Bit depth                   : 8 bits
    Scan type                   : Progressive
    Bits/(Pixel*Frame)          : 0.138
    Stream size                 : 1.69 GiB (90%)
    Title                       : CinemaniaHDD.Net
    Writing library             : x264 core 148 r2721 6d200cf
    Encoding settings           : cabac=1 / ref=3 / deblock=1:0:0 / analyse=0x1:0x111 / me=umh / subme=10 / psy=1 / psy_rd=1.00:0.00 / mixed_ref=1 / me_range=24 / chroma_me=1 / trellis=2 / 8x8dct=0 / cqm=0 / deadzone=21,11 / fast_pskip=1 / chroma_qp_offset=-2 / threads=8 / lookahead_threads=1 / sliced_threads=0 / nr=0 / decimate=1 / interlaced=0 / bluray_compat=0 / stitchable=1 / constrained_intra=0 / bframes=2 / b_pyramid=0 / b_adapt=2 / b_bias=0 / direct=3 / weightb=1 / open_gop=0 / weightp=2 / keyint=250 / keyint_min=25 / scenecut=0 / intra_refresh=0 / rc_lookahead=50 / rc=2pass / mbtree=1 / bitrate=7150 / ratetol=1.0 / qcomp=0.50 / qpmin=6 / qpmax=51 / qpstep=4 / cplxblur=20.0 / qblur=0.5 / vbv_maxrate=10725 / vbv_bufsize=14300 / nal_hrd=vbr / filler=0 / ip_ratio=1.40 / aq=1:1.00
    Default                     : Yes
    Forced                      : No

    Audio #1
    ID                          : 2
    Format                      : AC-3
    Format/Info                 : Audio Coding 3
    Commercial name             : Dolby Digital
    Codec ID                    : A_AC3
    Duration                    : 34 min 58 s
    Bit rate mode               : Constant
    Bit rate                    : 384 kb/s
    Channel(s)                  : 6 channels
    Channel layout              : L R C LFE Ls Rs
    Sampling rate               : 48.0 kHz
    Frame rate                  : 31.250 FPS (1536 SPF)
    Compression mode            : Lossy
    Stream size                 : 96.1 MiB (5%)
    Title                       : Español latino [CinemaniaHDD]
    Language                    : Spanish
    Service kind                : Complete Main
    Default                     : Yes
    Forced                      : No

    Audio #2
    ID                          : 3
    Format                      : AC-3
    Format/Info                 : Audio Coding 3
    Commercial name             : Dolby Digital
    Codec ID                    : A_AC3
    Duration                    : 34 min 58 s
    Bit rate mode               : Constant
    Bit rate                    : 384 kb/s
    Channel(s)                  : 6 channels
    Channel layout              : L R C LFE Ls Rs
    Sampling rate               : 48.0 kHz
    Frame rate                  : 31.250 FPS (1536 SPF)
    Compression mode            : Lossy
    Stream size                 : 96.1 MiB (5%)
    Title                       : Aleman [CinemaniaHDD]
    Language                    : German
    Service kind                : Complete Main
    Default                     : No
    Forced

  • Peso: 1.88 GiB C/U APROX --- 7.67 GiB in 6 chater

Sinopsis

Para recuperar a su ex novia, un adolescente nerd comienza a vender éxtasis en línea desde su habitación, y se convierte en uno de los distribuidores más grandes de Europa.

 Español Latino AC3 5.1 NF – Aleman AC3 5.1 NF

Ficha técnica

Video trailer de la película

Enlaces de descarga

Rip de Bluray

Descargar How to Sell Drugs Online (Fast) (2020) Temporada 2 WEB-DL 1080p Latino




Aportes de DPeliculasHDmega la pass es:dpeliculashdmega.org Aportes de CinemaniaHD la pass es:cinemaniahdd.com
Guardado en : Comedia , Crimen , Drama , Netflix , Series

Películas relacionadas

  • Star Wars: Andor (2022) Temporada 1 WEB-DL 1080p Latino

    Star Wars: Andor (2022) Temporada 1 WEB-DL 1080p Latino

    2022
    Star Wars: Andor (2022) Temporada 1 WEB-DL 1080p Latino

    0h 0m 2022

    Descargar Star Wars: Andor (2022) Temporada 1 WEB-DL 1080p Latino. Serie precuela de 'Star Wars; Rogue...

    Director: Tony Gilroy

    Género: Action & Adventure

    Actores: Stellan Skarsgård

  • El Ultimo Juego (2021) WEB-DL 1080p Latino

    El Ultimo Juego (2021) WEB-DL 1080p Latino

    2021
    El Ultimo Juego (2021) WEB-DL 1080p Latino

    1h 21m 2021

    Descargar El Ultimo Juego (2021) WEB-DL 1080p Latino. 6 extraños se despiertan dentro de una habitación...

    Director: John David Moffat IV

    Género: Drama

    Actores: Yasmin Irvine

  • DC Liga De Supermascotas (2022) HD 1080p Latino

    DC Liga De Supermascotas (2022) HD 1080p Latino

    2022
    DC Liga De Supermascotas (2022) HD 1080p Latino

    1h 45m 2022

    Descargar DC Liga De Supermascotas (2022) HD 1080p Latino. Krypto el Superperro y Superman son amigos...

    Director: Sam Levine

    Género: Acción

    Actores: Yvette Nicole Brown

descargar How to Sell Drugs Online (Fast) (2020) Temporada 2 WEB-DL 1080p Latino WEBDL 1080p gratis, How to Sell Drugs Online (Fast) (2020) Temporada 2 WEB-DL 1080p Latino WEBDL mega 1 link, How to Sell Drugs Online (Fast) (2020) Temporada 2 WEB-DL 1080p Latino WEBDL serie completa, descargar How to Sell Drugs Online (Fast) (2020) Temporada 2 WEB-DL 1080p Latino WEBDL gratis en mega.

How to Sell Drugs Online (Fast) (2020) Temporada 2 WEB-DL 1080p Latino pelicula full hd, How to Sell Drugs Online (Fast) (2020) Temporada 2 WEB-DL 1080p Latino mega latino, How to Sell Drugs Online (Fast) (2020) Temporada 2 WEB-DL 1080p Latino 4k latino, How to Sell Drugs Online (Fast) (2020) Temporada 2 WEB-DL 1080p Latino pelicula completa, How to Sell Drugs Online (Fast) (2020) Temporada 2 WEB-DL 1080p Latino descargar gratis, descargar How to Sell Drugs Online (Fast) (2020) Temporada 2 WEB-DL 1080p Latino pelicula latino, How to Sell Drugs Online (Fast) (2020) Temporada 2 WEB-DL 1080p Latino 1 link mega, How to Sell Drugs Online (Fast) (2020) Temporada 2 WEB-DL 1080p Latino 1 link google drive, How to Sell Drugs Online (Fast) (2020) Temporada 2 WEB-DL 1080p Latino hd 1080p latino.
Comentarios 0