×

¿Problemas para descargar con Mozilla, EDGE? Deshabilita la opción "Abrir vinculos en una pestaña nueva" tal como lo muestra ésta imagen.

How I Met Your Mother (2010) Temporada 6 WEB-DL 1080p Latino

11 vistas

Información de How I Met Your Mother (2010) Temporada 6 WEB-DL 1080p Latino

Datos de la película

  • Calidad: WEBDL
  • Audio: Se especifica abajo de la Sinopsis
  • Subtitulos: Español Latino SRT- FORZADOS SRT
  • Resolución: 1920x1080p
  • Formato: MKV
  • Codec: H.264
  • Encoder: Melkor
  • Mediainfo: Clic para Mostrar Datos Ver
  • How I Met Your Mother S06E01 (2010) DSNP WEB 1080p Latino.mkv
    Format                      : Matroska
    Format version              : Version 4
    File size                   : 1.34 GiB
    Duration                    : 21 min 37 s
    Overall bit rate mode       : Variable
    Overall bit rate            : 8 888 kb/s
    Movie name                  : How I Met Your Mother S06E01 - Dias grandiosos CinemaniaHDD.Net
    Encoded date                : UTC 2024-07-08 07:24:18
    Writing application         : mkvmerge v63.0.0 ('Everything') 32-bit
    Writing library             : libebml v1.4.2 + libmatroska v1.6.4
    Attachments                 : CINEMANIAHD.png
    Site                        : CinemaniaHDD.Net
    Uploader                    : Melkor

    Video
    ID                          : 1
    Format                      : AVC
    Format/Info                 : Advanced Video Codec
    Format profile              : High@L4
    Format settings             : CABAC / 4 Ref Frames
    Format settings, CABAC      : Yes
    Format settings, Reference  : 4 frames
    Codec ID                    : V_MPEG4/ISO/AVC
    Duration                    : 21 min 36 s
    Bit rate mode               : Variable
    Bit rate                    : 8 504 kb/s
    Maximum bit rate            : 12.7 Mb/s
    Width                       : 1 920 pixels
    Height                      : 1 080 pixels
    Display aspect ratio        : 16:9
    Frame rate mode             : Constant
    Frame rate                  : 23.976 (24000/1001) FPS
    Color space                 : YUV
    Chroma subsampling          : 4:2:0
    Bit depth                   : 8 bits
    Scan type                   : Progressive
    Bits/(Pixel*Frame)          : 0.171
    Stream size                 : 1.28 GiB (96%)
    Title                       : WEB HD1080p [CinemaniaHDD]
    Default                     : Yes
    Forced                      : No
    Color range                 : Limited
    Color primaries             : BT.709
    Transfer characteristics    : BT.709
    Matrix coefficients         : BT.709

    Audio #1
    ID                          : 2
    Format                      : AAC LC
    Format/Info                 : Advanced Audio Codec Low Complexity
    Codec ID                    : A_AAC-2
    Duration                    : 21 min 37 s
    Bit rate                    : 125 kb/s
    Channel(s)                  : 2 channels
    Channel layout              : L R
    Sampling rate               : 48.0 kHz
    Frame rate                  : 46.875 FPS (1024 SPF)
    Compression mode            : Lossy
    Stream size                 : 19.4 MiB (1%)
    Title                       : Español Latino [CinemaniaHDD]
    Language                    : Spanish
    Default                     : Yes
    Forced                      : No

    Audio #2
    ID                          : 3
    Format                      : E-AC-3
    Format/Info                 : Enhanced AC-3
    Commercial name             : Dolby Digital Plus
    Codec ID                    : A_EAC3
    Duration                    : 21 min 36 s
    Bit rate mode               : Constant
    Bit rate                    : 256 kb/s
    Channel(s)                  : 6 channels
    Channel layout              : L R C LFE Ls Rs
    Sampling rate               : 48.0 kHz
    Frame rate                  : 31.250 FPS (1536 SPF)
    Compression mode            : Lossy
    Stream size                 : 39.6 MiB (3%)
    Title                       : Ingles [CinemaniaHDD]
    Language                    : English
    Service kind                : Complete Main
    Default                     : No
    Forced                      : No

    Text #1
    ID                          : 4
    Format                      : UTF-8
    Codec ID                    : S_TEXT/UTF8
    Codec ID/Info               : UTF-8 Plain Text
    Duration                    : 21 min 30 s
    Bit rate                    : 88 b/s
    Count of elements           : 383
    Stream size                 : 13.9 KiB (0%)
    Title                       : Español-SRT [CinemaniaHDD]
    Language                    : Spanish
    Default                     : No
    Forced                      : No

    Text #2
    ID                          : 5
    Format                      : UTF-8
    Codec ID                    : S_TEXT/UTF8
    Codec ID/Info               : UTF-8 Plain Text
    Duration                    : 21 min 10 s
    Bit rate                    : 102 b/s
    Count of elements           : 447
    Stream size                 : 15.9 KiB (0%)
    Title                       : Ingles-SRT [CinemaniaHDD]
    Language                    : English
    Default                     : No
    Forced                      : No

    Menu
    00:02:53.100                : en:Intro
    00:03:03.300                : en:Scene 1
    00:21:11.800                : en:Credits

  • Peso: 1.4 GiB -- 31.7 GiB -- 24 Chapters

Sinopsis

Descargar How I Met Your Mother (2010) Temporada 6 WEB-DL 1080p Latino. Un padre cuenta a sus hijos, a través de una serie de flashbacks, el viaje que él y sus cuatro mejores amigos hicieron antes de conocer a su madre.

Temporada 6: Mientras ayudan a desalojan la casa de su madre, James y Barney encuentran una carta que nunca fue enviada, en la cual dice que Sam Gibbs es el verdadero padre de James. Con este descubrimiento, Barney comprende los sacrificios que Loretta realizó como madre soltera. Ahora que Robin ha superado su relación con Don, decide enfocar toda su energía en el trabajo, pero su nueva compañera en el programa de televisión termina frustrando sus planes. El Goliath National Back le ofrece a Ted ser el arquitecto encargado de su nuevo proyecto; aunque al principio rechaza la oferta, éste termina aceptando. Lo que lo lleva a comenzar una rivalidad con Zoey Pierson, una linda chica que busca salvar el viejo edificio donde el GNB quiere construir. Lily y Marshall tienen dificultades para convertirse en padres, pero cuando reciben una inesperada noticia sobre el padre de Marshall, ambos cambian de perspectiva.

Español Latino AAC 2.0 – Ingles EAC3 5.1 [ D+] 

Ficha técnica

Video trailer de la película

Enlaces de descarga

Rip de Bluray

Descargar How I Met Your Mother (2010) Temporada 6 WEB-DL 1080p Latino




Aportes de DPeliculasHDmega la pass es:dpeliculashdmega.org Aportes de CinemaniaHD la pass es:cinemaniahdd.com Aportes recientes:cinemaniahdd.net
Guardado en : Comedia , Series
Etiquetado en :

Películas relacionadas

  • Scary Movie 5 (2013) REMUX 1080p Latino – CMHDD

    Scary Movie 5 (2013) REMUX 1080p Latino – CMHDD

    2013
    Scary Movie 5 (2013) REMUX 1080p Latino – CMHDD

    1h 28m 2013

    Los felizmente casados Dan y Jody empiezan a observar algunos fenómenos extraños en su casa tras volver...

    Director: Tim Fitzgerald

    Género: Comedia

    Actores: Zoe Pessin

  • Scary Movie 4 (2006) REMUX 1080p Latino – CMHDD

    Scary Movie 4 (2006) REMUX 1080p Latino – CMHDD

    2006
    Scary Movie 4 (2006) REMUX 1080p Latino – CMHDD

    1h 29m 2006

    Una nueva entrega de la franquicia que parodia los últimos títulos del cine americano. Esta vez, la...

    Director: Steve Eathorne

    Género: Comedia

    Actores: YoungBloodZ

  • Scary Movie 3 (2003) REMUX 1080p Latino – CMHDD

    Scary Movie 3 (2003) REMUX 1080p Latino – CMHDD

    2003
    Scary Movie 3 (2003) REMUX 1080p Latino – CMHDD

    1h 25m 2003

    Después de haberlo pasado fatal -eso siempre según se mire- en las dos anteriores entregas, Cindy Campbell...

    Director: Wendy L. Adjoury

    Género: Comedia

    Actores: William S. Taylor

  • Scary Movie (2000) REMUX 1080p Latino – CMHDD

    Scary Movie (2000) REMUX 1080p Latino – CMHDD

    2000
    Scary Movie (2000) REMUX 1080p Latino – CMHDD

    1h 28m 2000

    Tras el asesinato de una bella estudiante, un grupo de adolescentes descubren que hay un asesino entre...

    Director: William D. Robinson

    Género: Comedia

    Actores: Zahf Paroo

descargar How I Met Your Mother (2010) Temporada 6 WEB-DL 1080p Latino WEBDL 1080p gratis, How I Met Your Mother (2010) Temporada 6 WEB-DL 1080p Latino WEBDL mega 1 link, How I Met Your Mother (2010) Temporada 6 WEB-DL 1080p Latino WEBDL serie completa, descargar How I Met Your Mother (2010) Temporada 6 WEB-DL 1080p Latino WEBDL gratis en mega.

How I Met Your Mother (2010) Temporada 6 WEB-DL 1080p Latino pelicula full hd, How I Met Your Mother (2010) Temporada 6 WEB-DL 1080p Latino mega latino, How I Met Your Mother (2010) Temporada 6 WEB-DL 1080p Latino 4k latino, How I Met Your Mother (2010) Temporada 6 WEB-DL 1080p Latino pelicula completa, How I Met Your Mother (2010) Temporada 6 WEB-DL 1080p Latino descargar gratis, descargar How I Met Your Mother (2010) Temporada 6 WEB-DL 1080p Latino pelicula latino, How I Met Your Mother (2010) Temporada 6 WEB-DL 1080p Latino 1 link mega, How I Met Your Mother (2010) Temporada 6 WEB-DL 1080p Latino 1 link google drive, How I Met Your Mother (2010) Temporada 6 WEB-DL 1080p Latino hd 1080p latino.
Comentarios 0