×

¿Problemas para descargar con Mozilla, EDGE? Deshabilita la opción "Abrir vinculos en una pestaña nueva" tal como lo muestra ésta imagen.

House at the End of the Street (2012) REMUX 1080p Latino – CMHDD

463 vistas

Información de House at the End of the Street (2012) REMUX 1080p Latino – CMHDD

Datos de la película

  • Calidad: Full 1080p
  • Audio: Se especifica abajo de la Sinopsis
  • Subtitulos: Español Latino SRT
  • Resolución: 1920x1080p
  • Formato: MKV
  • Codec: H.264
  • Encoder: Dracarys
  • Mediainfo: Clic para Mostrar Datos Ver
  • Format                      : Matroska
    Format version              : Version 4
    File size                   : 18.5 GiB
    Duration                    : 1 h 40 min
    Overall bit rate mode       : Variable
    Overall bit rate            : 26.3 Mb/s
    Movie name                  : House at the End of the Street (2012) REMUX 1080p Latino - CMHDD
    Encoded date                : UTC 2020-11-17 23:27:34
    Writing application         : mkvmerge v51.0.0 ('I Wish') 64-bit
    Writing library             : libebml v1.4.0 + libmatroska v1.6.2

    Video
    ID                          : 1
    Format                      : MPEG Video
    Format version              : Version 2
    Format profile              : Main@High
    Format settings             : BVOP
    Format settings, BVOP       : Yes
    Format settings, Matrix     : Default
    Format settings, GOP        : M=3, N=15
    Codec ID                    : V_MPEG2
    Codec ID/Info               : MPEG 1 or 2 Video
    Duration                    : 1 h 40 min
    Bit rate mode               : Variable
    Bit rate                    : 25.0 Mb/s
    Maximum bit rate            : 30.0 Mb/s
    Width                       : 1 920 pixels
    Height                      : 1 080 pixels
    Display aspect ratio        : 16:9
    Frame rate mode             : Constant
    Frame rate                  : 23.976 (24000/1001) FPS
    Color space                 : YUV
    Chroma subsampling          : 4:2:0
    Bit depth                   : 8 bits
    Scan type                   : Progressive
    Compression mode            : Lossy
    Bits/(Pixel*Frame)          : 0.502
    Time code of first frame    : 00:00:00:00
    Time code source            : Group of pictures header
    GOP, Open/Closed            : Open
    GOP, Open/Closed of first f : Closed
    Stream size                 : 17.6 GiB (95%)
    Default                     : Yes
    Forced                      : No

    Audio #1
    ID                          : 2
    Format                      : E-AC-3
    Format/Info                 : Enhanced AC-3
    Commercial name             : Dolby Digital Plus
    Codec ID                    : A_EAC3
    Duration                    : 1 h 40 min
    Bit rate mode               : Constant
    Bit rate                    : 224 kb/s
    Channel(s)                  : 2 channels
    Channel layout              : L R
    Sampling rate               : 48.0 kHz
    Frame rate                  : 31.250 FPS (1536 SPF)
    Compression mode            : Lossy
    Delay relative to video     : 2 s 0 ms
    Stream size                 : 161 MiB (1%)
    Language                    : Spanish
    Service kind                : Complete Main
    Default                     : Yes
    Forced                      : No

    Audio #2
    ID                          : 3
    Format                      : AC-3
    Format/Info                 : Audio Coding 3
    Commercial name             : Dolby Digital
    Codec ID                    : A_AC3
    Duration                    : 1 h 40 min
    Bit rate mode               : Constant
    Bit rate                    : 320 kb/s
    Channel(s)                  : 2 channels
    Channel layout              : L R
    Sampling rate               : 48.0 kHz
    Frame rate                  : 31.250 FPS (1536 SPF)
    Compression mode            : Lossy
    Delay relative to video     : 2 s 0 ms
    Stream size                 : 231 MiB (1%)
    Language                    : Spanish
    Service kind                : Complete Main
    Default                     : No
    Forced                      : No

    Audio #3
    ID                          : 4
    Format                      : DTS
    Format/Info                 : Digital Theater Systems
    Codec ID                    : A_DTS
    Duration                    : 1 h 40 min
    Bit rate mode               : Constant
    Bit rate                    : 755 kb/s
    Channel(s)                  : 6 channels
    Channel layout              : C L R Ls Rs LFE
    Sampling rate               : 48.0 kHz
    Frame rate                  : 93.750 FPS (512 SPF)
    Bit depth                   : 16 bits
    Compression mode            : Lossy
    Stream size                 : 544 MiB (3%)
    Language                    : English
    Default                     : No
    Forced                      : No

    Text
    ID                          : 5
    Format                      : UTF-8
    Codec ID                    : S_TEXT/UTF8
    Codec ID/Info               : UTF-8 Plain Text
    Duration                    : 1 h 40 min
    Bit rate                    : 34 b/s
    Count of elements           : 941
    Stream size                 : 25.4 KiB (0%)
    Language                    : Spanish
    Default                     : No
    Forced                      : No

  • Peso: 18.5 GiB

Sinopsis

Cuando una chica adolescente se muda junto a su madre a un nuevo pueblo, descubre que su casa esta frente a otra en la que tuvo lugar un doble asesinato. Las cosas comenzarán a complicarse cuando la joven se hace amiga de un chico que sobrevivió a la masacre.

 

 

Latino: E-AC3 + AC3 2.0 AMAZON  –  Ingles: DTS 5.1 Blu Ray

Ficha técnica

Video trailer de la película

Enlaces de descarga

Rip de Bluray

Descargar House at the End of the Street (2012) REMUX 1080p Latino – CMHDD


Aportes de DPeliculasHDmega la pass es:dpeliculashdmega.org Aportes de CinemaniaHD la pass es:cinemaniahdd.com Aportes recientes:cinemaniahdd.net
Guardado en : Suspenso , Terror

Películas relacionadas

  • 57 Seconds (2023) AMZN WEB-DL 1080p Latino

    57 Seconds (2023) AMZN WEB-DL 1080p Latino

    2023
    57 Seconds (2023) AMZN WEB-DL 1080p Latino

    1h 39m 2023

    Cuando un blogger de tecnología consigue una entrevista con un gurú de la tecnología y detiene un...

    Director: Taylor DiMarco

    Género: Acción

    Actores: Valerie E. Lamb

  • The Beekeeper (2024) AMZN WEB-DL 1080p Latino

    The Beekeeper (2024) AMZN WEB-DL 1080p Latino

    2024
    The Beekeeper (2024) AMZN WEB-DL 1080p Latino

    1h 45m 2024

    La brutal campaña de venganza de Adam Clay adquiere tintes nacionales tras revelarse que es un antiguo...

    Director: Vanluke Watson

    Género: Acción

    Actores: Victor Perez

  • Naturaleza Humana (2022) REMUX 1080p Latino

    Naturaleza Humana (2022) REMUX 1080p Latino

    2022
    Naturaleza Humana (2022) REMUX 1080p Latino

    1h 31m 2022

    Descargar Naturaleza Humana (2022) REMUX 1080p Latino. Una historia sobre la mayoría de edad contada...

    Director: Louie Gibson

    Género: Drama

    Actores: Tim Heidecker

descargar House at the End of the Street (2012) REMUX 1080p Latino – CMHDD Full 1080p 1080p gratis, House at the End of the Street (2012) REMUX 1080p Latino – CMHDD Full 1080p mega 1 link, House at the End of the Street (2012) REMUX 1080p Latino – CMHDD Full 1080p pelicula completa, descargar House at the End of the Street (2012) REMUX 1080p Latino – CMHDD Full 1080p gratis en mega.

House at the End of the Street (2012) REMUX 1080p Latino – CMHDD pelicula full hd, House at the End of the Street (2012) REMUX 1080p Latino – CMHDD mega latino, House at the End of the Street (2012) REMUX 1080p Latino – CMHDD 4k latino, House at the End of the Street (2012) REMUX 1080p Latino – CMHDD pelicula completa, House at the End of the Street (2012) REMUX 1080p Latino – CMHDD descargar gratis, descargar House at the End of the Street (2012) REMUX 1080p Latino – CMHDD pelicula latino, House at the End of the Street (2012) REMUX 1080p Latino – CMHDD 1 link mega, House at the End of the Street (2012) REMUX 1080p Latino – CMHDD 1 link google drive, House at the End of the Street (2012) REMUX 1080p Latino – CMHDD hd 1080p latino.
Comentarios 0