×

¿Problemas para descargar con Mozilla, EDGE? Deshabilita la opción "Abrir vinculos en una pestaña nueva" tal como lo muestra ésta imagen.

Hotwired in Suburbia (2020) WEB-DL 1080p Latino

122 vistas

Información de Hotwired in Suburbia (2020) WEB-DL 1080p Latino

Datos de la película

  • Calidad: 1080p
  • Audio: Español Latino AC3 2.0 WEB-DL - Ingles AC3 2.0 WEB-DL
  • Subtitulos: Español Latino SRT - Ingles SRT
  • Resolución: 1920x1080
  • Formato: MKV
  • Codec: H.264
  • Encoder: cinemaniahdd
  • Mediainfo: Clic para Mostrar Datos Ver
  • Hotwired in Suburbia (2020) WEB-DL 1080p Latino [CNMNHDD].mkv
    Format                      : Matroska
    Format version              : Version 4
    File size                   : 5.37 GiB
    Duration                    : 1 h 25 min
    Overall bit rate mode       : Variable
    Overall bit rate            : 8 998 kb/s
    Movie name                  : Hotwired in Suburbia (2020) - CinemaniaHDD.Net
    Encoded date                : UTC 2021-10-13 01:45:17
    Writing application         : mkvmerge v56.1.0 ('My Friend') 64-bit
    Writing library             : libebml v1.4.2 + libmatroska v1.6.4

    Video
    ID                          : 1
    Format                      : AVC
    Format/Info                 : Advanced Video Codec
    Format profile              : High@L4
    Format settings             : CABAC / 4 Ref Frames
    Format settings, CABAC      : Yes
    Format settings, Reference  : 4 frames
    Codec ID                    : V_MPEG4/ISO/AVC
    Duration                    : 1 h 25 min
    Bit rate mode               : Variable
    Bit rate                    : 7 000 kb/s
    Width                       : 1 920 pixels
    Height                      : 1 080 pixels
    Display aspect ratio        : 16:9
    Frame rate mode             : Constant
    Frame rate                  : 23.976 (24000/1001) FPS
    Color space                 : YUV
    Chroma subsampling          : 4:2:0
    Bit depth                   : 8 bits
    Scan type                   : Progressive
    Bits/(Pixel*Frame)          : 0.133
    Stream size                 : 4.91 GiB (91%)
    Title                       : CinemaniaHDD
    Language                    : Spanish
    Default                     : Yes
    Forced                      : No
    Color range                 : Limited
    Color primaries             : BT.709
    Transfer characteristics    : BT.709
    Matrix coefficients         : BT.709

    Audio #1
    ID                          : 2
    Format                      : AC-3
    Format/Info                 : Audio Coding 3
    Commercial name             : Dolby Digital
    Codec ID                    : A_AC3
    Duration                    : 1 h 25 min
    Bit rate mode               : Constant
    Bit rate                    : 384 kb/s
    Channel(s)                  : 2 channels
    Channel layout              : L R
    Sampling rate               : 48.0 kHz
    Frame rate                  : 31.250 FPS (1536 SPF)
    Compression mode            : Lossy
    Stream size                 : 235 MiB (4%)
    Title                       : Español latino [CinemaniaHDD]
    Language                    : Spanish
    Service kind                : Complete Main
    Default                     : Yes
    Forced                      : No

    Audio #2
    ID                          : 3
    Format                      : AC-3
    Format/Info                 : Audio Coding 3
    Commercial name             : Dolby Digital
    Codec ID                    : A_AC3
    Duration                    : 1 h 25 min
    Bit rate mode               : Constant
    Bit rate                    : 384 kb/s
    Channel(s)                  : 2 channels
    Channel layout              : L R
    Sampling rate               : 48.0 kHz
    Frame rate                  : 31.250 FPS (1536 SPF)
    Compression mode            : Lossy
    Stream size                 : 235 MiB (4%)
    Title                       : Inglés [CinemaniaHDD]
    Language                    : English
    Service kind                : Complete Main
    Default                     : No
    Forced                      : No

    Text #1
    ID                          : 4
    Format                      : UTF-8
    Codec ID                    : S_TEXT/UTF8
    Codec ID/Info               : UTF-8 Plain Text
    Duration                    : 1 h 10 min
    Bit rate                    : 0 b/s
    Count of elements           : 16
    Stream size                 : 458 Bytes (0%)
    Title                       : Forzados [CinemaniaHDD]
    Language                    : Spanish
    Default                     : Yes
    Forced                      : Yes

    Text #2
    ID                          : 5
    Format                      : UTF-8
    Codec ID                    : S_TEXT/UTF8
    Codec ID/Info               : UTF-8 Plain Text
    Duration                    : 1 h 24 min
    Bit rate                    : 52 b/s
    Count of elements           : 1064
    Stream size                 : 32.4 KiB (0%)
    Title                       : Español latino [CinemaniaHDD]
    Language                    : Spanish
    Default                     : No
    Forced                      : No

     

  • Peso: 5.37 GiB

Sinopsis

Para ganar dinero fácil, dos amigas adolescentes se involucran en un esquema de robo de autos que las coloca en el centro de un plan mortal.

Ficha técnica

  • Titulo original: Hotwired in Suburbia
  • Fecha de lanzamiento: 30-01-2020 (United States of America)
  • Director: Jason Bourque
  • Género: Suspenso

Video trailer de la película

Enlaces de descarga

Rip de Bluray

Descargar Hotwired in Suburbia (2020) WEB-DL 1080p Latino




Aportes de DPeliculasHDmega la pass es:dpeliculashdmega.org Aportes de CinemaniaHD la pass es:cinemaniahdd.com
Guardado en : Suspenso

Películas relacionadas

descargar Hotwired in Suburbia (2020) WEB-DL 1080p Latino 1080p 1080p gratis, Hotwired in Suburbia (2020) WEB-DL 1080p Latino 1080p mega 1 link, Hotwired in Suburbia (2020) WEB-DL 1080p Latino 1080p pelicula completa, descargar Hotwired in Suburbia (2020) WEB-DL 1080p Latino 1080p gratis en mega.

Hotwired in Suburbia (2020) WEB-DL 1080p Latino pelicula full hd, Hotwired in Suburbia (2020) WEB-DL 1080p Latino mega latino, Hotwired in Suburbia (2020) WEB-DL 1080p Latino 4k latino, Hotwired in Suburbia (2020) WEB-DL 1080p Latino pelicula completa, Hotwired in Suburbia (2020) WEB-DL 1080p Latino descargar gratis, descargar Hotwired in Suburbia (2020) WEB-DL 1080p Latino pelicula latino, Hotwired in Suburbia (2020) WEB-DL 1080p Latino 1 link mega, Hotwired in Suburbia (2020) WEB-DL 1080p Latino 1 link google drive, Hotwired in Suburbia (2020) WEB-DL 1080p Latino hd 1080p latino.
Comentarios 0