Hotel Transylvania: Transformania (2022) AMZN WEB-DL 1080p Latino

1.785 vistas

Información de Hotel Transylvania: Transformania (2022) AMZN WEB-DL 1080p Latino

Datos de la película

  • Calidad: 1080p
  • Audio: Español Latino AC3 5.1 WEB-DL - Ingles AC3 5.1 WEB-DL
  • Subtitulos: Español Latino SRT- FORZADOS SRT
  • Resolución: 1920x1080
  • Formato: MKV
  • Codec: H.264
  • Encoder: cinemaniahdd
  • Mediainfo: Clic para Mostrar Datos Ver
  • Hotel Transylvania 4 - Transformania (2022) AMZN WEB-DL 1080p Latino [CNMNHDD].mkv
    Format                      : Matroska
    Format version              : Version 4
    File size                   : 6.51 GiB
    Duration                    : 1 h 27 min
    Overall bit rate            : 10.6 Mb/s
    Movie name                  : Hotel Transylvania 4 - Transformania (2022) - CinemaniaHDD.Net
    Encoded date                : UTC 2022-01-14 00:32:36
    Writing application         : mkvmerge v56.1.0 ('My Friend') 64-bit
    Writing library             : libebml v1.4.2 + libmatroska v1.6.4

    Video
    ID                          : 1
    Format                      : AVC
    Format/Info                 : Advanced Video Codec
    Format profile              : High@L4
    Format settings             : CABAC / 4 Ref Frames
    Format settings, CABAC      : Yes
    Format settings, Reference  : 4 frames
    Codec ID                    : V_MPEG4/ISO/AVC
    Duration                    : 1 h 27 min
    Bit rate mode               : Constant
    Bit rate                    : 8 720 kb/s
    Nominal bit rate            : 10 000 kb/s
    Width                       : 1 920 pixels
    Height                      : 1 040 pixels
    Display aspect ratio        : 1.85:1
    Frame rate mode             : Constant
    Frame rate                  : 23.976 (24000/1001) FPS
    Color space                 : YUV
    Chroma subsampling          : 4:2:0
    Bit depth                   : 8 bits
    Scan type                   : Progressive
    Bits/(Pixel*Frame)          : 0.182
    Stream size                 : 5.33 GiB (82%)
    Title                       : CinemaniaHDD
    Language                    : English
    Default                     : Yes
    Forced                      : No
    Color range                 : Limited
    Color primaries             : BT.709
    Transfer characteristics    : BT.709
    Matrix coefficients         : BT.709

    Audio #1
    ID                          : 2
    Format                      : AC-3
    Format/Info                 : Audio Coding 3
    Commercial name             : Dolby Digital
    Codec ID                    : A_AC3
    Duration                    : 1 h 27 min
    Bit rate mode               : Constant
    Bit rate                    : 640 kb/s
    Channel(s)                  : 6 channels
    Channel layout              : L R C LFE Ls Rs
    Sampling rate               : 48.0 kHz
    Frame rate                  : 31.250 FPS (1536 SPF)
    Compression mode            : Lossy
    Stream size                 : 401 MiB (6%)
    Title                       : Español latino [CinemaniaHDD]
    Language                    : Spanish
    Service kind                : Complete Main
    Default                     : Yes
    Forced                      : No

    Audio #2
    ID                          : 3
    Format                      : E-AC-3
    Format/Info                 : Enhanced AC-3
    Commercial name             : Dolby Digital Plus
    Codec ID                    : A_EAC3
    Duration                    : 1 h 27 min
    Bit rate mode               : Constant
    Bit rate                    : 640 kb/s
    Channel(s)                  : 6 channels
    Channel layout              : L R C LFE Ls Rs
    Sampling rate               : 48.0 kHz
    Frame rate                  : 31.250 FPS (1536 SPF)
    Compression mode            : Lossy
    Stream size                 : 401 MiB (6%)
    Title                       : Español latino / E-AC3 [CinemaniaHDD]
    Language                    : Spanish
    Service kind                : Complete Main
    Default                     : No
    Forced                      : No

    Audio #3
    ID                          : 4
    Format                      : E-AC-3
    Format/Info                 : Enhanced AC-3
    Commercial name             : Dolby Digital Plus
    Codec ID                    : A_EAC3
    Duration                    : 1 h 27 min
    Bit rate mode               : Constant
    Bit rate                    : 640 kb/s
    Channel(s)                  : 6 channels
    Channel layout              : L R C LFE Ls Rs
    Sampling rate               : 48.0 kHz
    Frame rate                  : 31.250 FPS (1536 SPF)
    Compression mode            : Lossy
    Stream size                 : 401 MiB (6%)
    Title                       : Inglés [CinemaniaHDD]
    Language                    : English
    Service kind                : Complete Main
    Default                     : No
    Forced                      : No

    Text #1
    ID                          : 5
    Format                      : UTF-8
    Codec ID                    : S_TEXT/UTF8
    Codec ID/Info               : UTF-8 Plain Text
    Duration                    : 1 h 25 min
    Bit rate                    : 0 b/s
    Count of elements           : 19
    Stream size                 : 379 Bytes (0%)
    Title                       : Forzados [CinemaniaHDD]
    Language                    : Spanish
    Default                     : Yes
    Forced                      : Yes

    Text #2
    ID                          : 6
    Format                      : UTF-8
    Codec ID                    : S_TEXT/UTF8
    Codec ID/Info               : UTF-8 Plain Text
    Duration                    : 1 h 26 min
    Bit rate                    : 45 b/s
    Count of elements           : 1028
    Stream size                 : 28.7 KiB (0%)
    Title                       : Español latino [CinemaniaHDD]
    Language                    : Spanish
    Default                     : No
    Forced                      : No

    Text #3
    ID                          : 7
    Format                      : UTF-8
    Codec ID                    : S_TEXT/UTF8
    Codec ID/Info               : UTF-8 Plain Text
    Duration                    : 1 h 27 min
    Bit rate                    : 68 b/s
    Count of elements           : 1878
    Stream size                 : 43.6 KiB (0%)
    Title                       : Inglés [CinemaniaHDD]
    Language                    : English
    Default                     : No
    Forced                      : No

    Menu
    00:00:00.000                : :Amazon Original
    00:00:06.000                : :Studio Logo
    00:00:39.000                : :Scene 3
    00:06:19.000                : :Scene 4
    00:09:44.000                : :Scene 5
    00:15:49.000                : :Scene 6
    00:18:10.000                : :Scene 7
    00:22:49.000                : :Scene 8
    00:26:39.000                : :Scene 9
    00:28:54.000                : :Scene 10
    00:31:21.000                : :Scene 11
    00:33:01.000                : :Scene 12
    00:34:11.000                : :Scene 13
    00:36:28.000                : :Scene 14
    00:37:07.000                : :Scene 15
    00:38:13.000                : :Scene 16
    00:40:54.000                : :Scene 17
    00:45:33.000                : :Scene 18
    00:47:15.000                : :Scene 19
    00:48:32.000                : :Scene 20
    00:51:44.000                : :Scene 21
    00:57:04.000                : :Scene 22
    01:05:33.000                : :Scene 23
    01:13:43.000                : :Scene 24
    01:17:02.000                : :Scene 25
    01:17:48.000                : :End Credits

     

  • Peso: 6.51 GiB

Sinopsis

Drac y la pandilla vuelven, como nunca los habías visto antes en Hotel Transilvania: Transformanía. Volveremos a encontrarnos con nuestros monstruos favoritos en una aventura completamente nueva en la que Drac se enfrentará a una de las situaciones más aterradoras vividas hasta el momento. Cuando el misterioso invento de Van Helsing, el «Rayo Monstrificador», se vuelve totalmente fuera de control, Drac y sus monstruosos amigos se transforman en humanos, ¡y Johnny se convierte en un monstruo!

Ficha técnica

Video trailer de la película

Enlaces de descarga

Rip de Bluray

Descargar Hotel Transylvania: Transformania (2022) AMZN WEB-DL 1080p Latino




Aportes de DPeliculasHDmega la pass es:dpeliculashdmega.org Aportes de CinemaniaHD la pass es:cinemaniahdd.com

Películas relacionadas

  • Ghostbusters: El Legado (2021) HD 1080p Latino

    Ghostbusters: El Legado (2021) HD 1080p Latino

    2021
    Ghostbusters: El Legado (2021) HD 1080p Latino

    2h 4m 2021

    Descargar Ghostbusters: El Legado (2021) HD 1080p Latino. Una madre soltera y sus dos hijos se van a...

    Director: Jason Reitman

    Género: Aventura

    Actores: Tracy Letts

  • Eternals (2021) HD 1080p Latino

    Eternals (2021) HD 1080p Latino

    2021
    Eternals (2021) HD 1080p Latino

    2h 36m 2021

    Descargar Eternals (2021) HD 1080p Latino. Hace millones de años, los seres cósmicos conocidos como...

    Director: Simon Warnock

    Género: Acción

    Actores: Zain Al Rafeea

  • Eternals (2021) PLACEBO Full HD 1080p Latino

    Eternals (2021) PLACEBO Full HD 1080p Latino

    2021
    Eternals (2021) PLACEBO Full HD 1080p Latino

    2h 36m 2021

    Descargar Eternals (2021) PLACEBO Full HD 1080p Latino. Hace millones de años, los seres cósmicos conocidos...

    Director: Simon Warnock

    Género: Acción

    Actores: Zain Al Rafeea

  • Eternals (2021) REMUX 1080p Latino

    Eternals (2021) REMUX 1080p Latino

    2021
    Eternals (2021) REMUX 1080p Latino

    2h 36m 2021

    Descargar Eternals (2021) REMUX 1080p Latino. Hace millones de años, los seres cósmicos conocidos como...

    Director: Simon Warnock

    Género: Acción

    Actores: Zain Al Rafeea

  • Clifford, el gran perro rojo (2021) HD 1080p Latino

    Clifford, el gran perro rojo (2021) HD 1080p Latino

    2021
    Clifford, el gran perro rojo (2021) HD 1080p Latino

    1h 37m 2021

    Descargar Clifford, el gran perro rojo (2021) HD 1080p Latino. Cuando Emily Elizabeth conoce a un rescatador...

    Director: Walt Becker

    Género: Animación

    Actores: Yasha Jackson

Hotel Transylvania: Transformania (2022) AMZN WEB-DL 1080p Latino pelicula full hd, Hotel Transylvania: Transformania (2022) AMZN WEB-DL 1080p Latino mega latino, Hotel Transylvania: Transformania (2022) AMZN WEB-DL 1080p Latino 4k latino, Hotel Transylvania: Transformania (2022) AMZN WEB-DL 1080p Latino pelicula completa, Hotel Transylvania: Transformania (2022) AMZN WEB-DL 1080p Latino descargar gratis, descargar Hotel Transylvania: Transformania (2022) AMZN WEB-DL 1080p Latino pelicula latino, Hotel Transylvania: Transformania (2022) AMZN WEB-DL 1080p Latino 1 link mega, Hotel Transylvania: Transformania (2022) AMZN WEB-DL 1080p Latino 1 link google drive, Hotel Transylvania: Transformania (2022) AMZN WEB-DL 1080p Latino hd 1080p latino.
Comentarios 0