Hotel Transylvania 3 Summer Vacation (2018) REMUX 1080p Latino – CMHDD

56 vistas
1 estrella2 estrellas3 estrellas4 estrellas5 estrellas (Ninguna valoración todavía)
Cargando...

Información de Hotel Transylvania 3 Summer Vacation (2018) REMUX 1080p Latino – CMHDD

Datos de la película

  • Calidad: Full 1080p
  • Audio: Español Latino AC3 5.1 BLURAY - Ingles DTS 5.1 BLURAY
  • Subtitulos: Español Latino PGS
  • Resolución: 1920x1080p
  • Formato: MKV
  • Codec: H.264
  • Encoder: Dracarys
  • Mediainfo: Clic para Mostrar Datos Ver
  • Format                      : Matroska
    Format version              : Version 4
    File size                   : 17.4 GiB
    Duration                    : 1 h 27 min
    Overall bit rate mode       : Variable
    Overall bit rate            : 28.5 Mb/s
    Movie name                  : Hotel Transylvania 3: Summer Vacation (2018) REMUX 1080p Latino - CMHDD
    Encoded date                : UTC 2021-07-12 04:30:54
    Writing application         : mkvmerge v56.1.0 ('My Friend') 64-bit
    Writing library             : libebml v1.4.2 + libmatroska v1.6.4
    Cover                       : Yes
    Attachments                 : cover.jpg

    Video
    ID                          : 1
    ID in the original source m : 4113 (0x1011)
    Format                      : AVC
    Format/Info                 : Advanced Video Codec
    Format profile              : High@L4.1
    Format settings             : CABAC / 2 Ref Frames
    Format settings, CABAC      : Yes
    Format settings, Reference  : 2 frames
    Format settings, GOP        : M=1, N=10
    Codec ID                    : V_MPEG4/ISO/AVC
    Duration                    : 1 h 27 min
    Bit rate mode               : Variable
    Bit rate                    : 24.9 Mb/s
    Width                       : 1 920 pixels
    Height                      : 1 080 pixels
    Display aspect ratio        : 16:9
    Frame rate mode             : Constant
    Frame rate                  : 23.976 (24000/1001) FPS
    Color space                 : YUV
    Chroma subsampling          : 4:2:0
    Bit depth                   : 8 bits
    Scan type                   : Progressive
    Bits/(Pixel*Frame)          : 0.501
    Stream size                 : 15.2 GiB (87%)
    Default                     : Yes
    Forced                      : No
    Original source medium      : Blu-ray

    Audio #1
    ID                          : 2
    ID in the original source m : 4352 (0x1100)
    Format                      : DTS XLL
    Format/Info                 : Digital Theater Systems
    Commercial name             : DTS-HD Master Audio
    Codec ID                    : A_DTS
    Duration                    : 1 h 27 min
    Bit rate mode               : Variable
    Bit rate                    : 2 264 kb/s
    Channel(s)                  : 6 channels
    Channel layout              : C L R Ls Rs LFE
    Sampling rate               : 48.0 kHz
    Frame rate                  : 93.750 FPS (512 SPF)
    Bit depth                   : 16 bits
    Compression mode            : Lossless
    Stream size                 : 1.38 GiB (8%)
    Language                    : English
    Default                     : No
    Forced                      : No
    Original source medium      : Blu-ray

    Audio #2
    ID                          : 3
    ID in the original source m : 4353 (0x1101)
    Format                      : AC-3
    Format/Info                 : Audio Coding 3
    Commercial name             : Dolby Digital
    Codec ID                    : A_AC3
    Duration                    : 1 h 27 min
    Bit rate mode               : Constant
    Bit rate                    : 640 kb/s
    Channel(s)                  : 6 channels
    Channel layout              : L R C LFE Ls Rs
    Sampling rate               : 48.0 kHz
    Frame rate                  : 31.250 FPS (1536 SPF)
    Compression mode            : Lossy
    Stream size                 : 400 MiB (2%)
    Language                    : English
    Service kind                : Complete Main
    Default                     : No
    Forced                      : No
    Original source medium      : Blu-ray

    Audio #3
    ID                          : 4
    ID in the original source m : 4356 (0x1104)
    Format                      : AC-3
    Format/Info                 : Audio Coding 3
    Commercial name             : Dolby Digital
    Codec ID                    : A_AC3
    Duration                    : 1 h 27 min
    Bit rate mode               : Constant
    Bit rate                    : 640 kb/s
    Channel(s)                  : 6 channels
    Channel layout              : L R C LFE Ls Rs
    Sampling rate               : 48.0 kHz
    Frame rate                  : 31.250 FPS (1536 SPF)
    Compression mode            : Lossy
    Stream size                 : 400 MiB (2%)
    Language                    : Spanish
    Service kind                : Complete Main
    Default                     : Yes
    Forced                      : No
    Original source medium      : Blu-ray

    Text #1
    ID                          : 5
    ID in the original source m : 4611 (0x1203)
    Format                      : PGS
    Muxing mode                 : zlib
    Codec ID                    : S_HDMV/PGS
    Codec ID/Info               : Picture based subtitle format used on BDs/HD-DVDs
    Duration                    : 1 h 26 min
    Bit rate                    : 35.8 kb/s
    Count of elements           : 2004
    Stream size                 : 22.2 MiB (0%)
    Language                    : Spanish
    Default                     : No
    Forced                      : No
    Original source medium      : Blu-ray

    Text #2
    ID                          : 6
    ID in the original source m : 4614 (0x1206)
    Format                      : PGS
    Muxing mode                 : zlib
    Codec ID                    : S_HDMV/PGS
    Codec ID/Info               : Picture based subtitle format used on BDs/HD-DVDs
    Duration                    : 1 h 27 min
    Bit rate                    : 65.0 kb/s
    Count of elements           : 3360
    Stream size                 : 40.5 MiB (0%)
    Language                    : Spanish
    Default                     : No
    Forced                      : No
    Original source medium      : Blu-ray

    Menu
    00:00:00.000                : Chapter 01

  • Peso: 17.4 GiB

Sinopsis

Nuestra familia de monstruos favorita se embarca en un crucero de lujo para que por fin Drac pueda tomarse un descanso de proveer de vacaciones al resto en el hotel. Es una navegación tranquila para la pandilla de Drac, ya que los monstruos se entregan a toda la diversión a bordo que ofrece el crucero, desde el voleibol de monstruos y las excursiones exóticas, a ponerse al día con sus bronceados de luna. Pero las vacaciones de ensueño se convierten en una pesadilla cuando Mavis se da cuenta de que Drac se ha enamorado de la misteriosa capitana de la nave, Ericka, quien esconde un peligroso secreto que podría destruir a todos los monstruos.

Ficha técnica

Video trailer de la película

Enlaces de descarga

Rip de Bluray

Descargar Hotel Transylvania 3 Summer Vacation (2018) REMUX 1080p Latino – CMHDD


Aportes de DPeliculasHDmega la pass es:dpeliculashdmega.org Aportes de CinemaniaHD la pass es:cinemaniahdd.com
Guardado en : Animación , Comedia , Familia , Fantasía

Películas relacionadas

  • Cats and Peachtopia (2018) WEB-DL 1080p Latino

    Cats and Peachtopia (2018) WEB-DL 1080p Latino

    2018
    Cats and Peachtopia (2018) WEB-DL 1080p Latino

    5.0 1h 45m 2018

    Un gato llamado Blanket ha estado viviendo en un apartamento con su hijo, Cloak. Un día, Cloak decide...

    Director: Gary Wang

    Género: Animación

    Actores: Yufeng Li

  • Pixie (2020) HBOMAX WEB-DL 1080p Latino

    Pixie (2020) HBOMAX WEB-DL 1080p Latino

    2020
    Pixie (2020) HBOMAX WEB-DL 1080p Latino

    5.0 1h 34m 2020

    Para vengar la muerte de su madre, Pixie planea un atraco, pero debe huir a través de Irlanda de los...

    Director: Stephen Darragh

    Género: Comedia

    Actores: Turlough Convery

  • Space Jam: Una Nueva Era (2021) HD 1080p Latino

    Space Jam: Una Nueva Era (2021) HD 1080p Latino

    2021
    Space Jam: Una Nueva Era (2021) HD 1080p Latino

    0.0 1h 55m 2021

    Descargar Space Jam: Una Nueva Era (2021) HD 1080p Latino. ecuela de la cinta original de 1996, Space...

    Director: Rhys Summerhayes

    Género: Animación

    Actores: Zendaya

Hotel Transylvania 3 Summer Vacation (2018) REMUX 1080p Latino – CMHDD pelicula full hd, Hotel Transylvania 3 Summer Vacation (2018) REMUX 1080p Latino – CMHDD mega latino, Hotel Transylvania 3 Summer Vacation (2018) REMUX 1080p Latino – CMHDD 4k latino, Hotel Transylvania 3 Summer Vacation (2018) REMUX 1080p Latino – CMHDD pelicula completa, Hotel Transylvania 3 Summer Vacation (2018) REMUX 1080p Latino – CMHDD descargar gratis, descargar Hotel Transylvania 3 Summer Vacation (2018) REMUX 1080p Latino – CMHDD pelicula latino, Hotel Transylvania 3 Summer Vacation (2018) REMUX 1080p Latino – CMHDD 1 link mega, Hotel Transylvania 3 Summer Vacation (2018) REMUX 1080p Latino – CMHDD 1 link google drive, Hotel Transylvania 3 Summer Vacation (2018) REMUX 1080p Latino – CMHDD hd 1080p latino.