Hotel Transylvania 3 monstruos de vacaciones (2018) Full 1080p Latino [Placebo]

6.327 vistas
1 estrella2 estrellas3 estrellas4 estrellas5 estrellas (10 votos, promedio: 4,30 de 5)
Cargando…

Información de Hotel Transylvania 3 monstruos de vacaciones (2018) Full 1080p Latino [Placebo]

Datos de la película

  • Calidad: Full 1080p
  • Audio: Español Latino AC3 5.1 BLURAY - Ingles DTS 5.1 BLURAY
  • Subtitulos: Español Latino PGS - Ingles PGS
  • Resolución: 1920x1080p
  • Formato: MKV
  • Codec: H.264
  • Encoder: Dracarys
  • Mediainfo: Clic para Mostrar Datos Ver
  • Format                                   : Matroska
    Format version                           : Version 4 / Version 2
    File size                                : 4.19 GiB
    Duration                                 : 1 h 37 min
    Overall bit rate                         : 6 158 kb/s
    Movie name                               : CinemaniaHDD.net
    Encoded date                             : UTC 2018-09-27 17:52:57 / UTC 2018-09-27T06:00:52Z
    Writing application                      : mkvmerge v15.0.0 ('Duel with the Devil') 64-bit
    Writing library                          : libebml v1.3.5 + libmatroska v1.4.5 / Lavf57.7.2

    Video
    ID                                       : 1
    Format                                   : AVC
    Format/Info                              : Advanced Video Codec
    Format profile                           : High@L4.1
    Format settings                          : CABAC / 4 Ref Frames
    Format settings, CABAC                   : Yes
    Format settings, RefFrames               : 4 frames
    Codec ID                                 : V_MPEG4/ISO/AVC
    Duration                                 : 1 h 37 min
    Bit rate                                 : 3 887 kb/s
    Width                                    : 1 920 pixels
    Height                                   : 1 080 pixels
    Display aspect ratio                     : 16:9
    Frame rate mode                          : Constant
    Frame rate                               : 23.976 (24000/1001) FPS
    Color space                              : YUV
    Chroma subsampling                       : 4:2:0
    Bit depth                                : 8 bits
    Scan type                                : Progressive
    Bits/(Pixel*Frame)                       : 0.078
    Stream size                              : 2.64 GiB (63%)
    Writing library                          : x264 core 148 r2708 86b7198
    Encoding settings                        : cabac=1 / ref=4 / deblock=1:0:0 / analyse=0x3:0x133 / me=tesa / subme=11 / psy=1 / psy_rd=1.00:0.00 / mixed_ref=1 / me_range=24 / chroma_me=1 / trellis=2 / 8x8dct=1 / cqm=0 / deadzone=21,11 / fast_pskip=0 / chroma_qp_offset=-2 / threads=34 / lookahead_threads=8 / sliced_threads=0 / nr=0 / decimate=1 / interlaced=0 / bluray_compat=0 / constrained_intra=0 / bframes=16 / b_pyramid=2 / b_adapt=2 / b_bias=0 / direct=3 / weightb=1 / open_gop=0 / weightp=2 / keyint=240 / keyint_min=24 / scenecut=40 / intra_refresh=0 / rc_lookahead=60 / rc=crf / mbtree=1 / crf=20.0 / qcomp=0.60 / qpmin=0 / qpmax=69 / qpstep=4 / vbv_maxrate=62500 / vbv_bufsize=78125 / crf_max=0.0 / nal_hrd=none / filler=0 / ip_ratio=1.40 / aq=1:1.00
    Language                                 : English
    Default                                  : Yes
    Forced                                   : No
    Color range                              : Limited
    Color primaries                          : BT.709
    Transfer characteristics                 : BT.709
    Matrix coefficients                      : BT.709
    Statistics Tags Issue                    : mkvmerge v15.0.0 ('Duel with the Devil') 64-bit 2018-09-27 17:52:57 / mkvmerge v15.0.0 ('Duel with the Devil') 64-bit 2018-09-27 17:52:57 / UTC 2018-09-27T06:00:52Z
    FromStats_BitRate                        : 3929762
    FromStats_Duration                       : 01:37:23.254000000
    FromStats_FrameCount                     : 140098
    FromStats_StreamSize                     : 2870325089

    Audio #1
    ID                                       : 2
    Format                                   : AC-3
    Format/Info                              : Audio Coding 3
    Format settings, Endianness              : Big
    Codec ID                                 : A_AC3
    Duration                                 : 1 h 37 min
    Bit rate mode                            : Constant
    Bit rate                                 : 640 kb/s
    Channel(s)                               : 6 channels
    Channel positions                        : Front: L C R, Side: L R, LFE
    Sampling rate                            : 48.0 kHz
    Frame rate                               : 31.250 FPS (1536 SPF)
    Bit depth                                : 16 bits
    Compression mode                         : Lossy
    Delay relative to video                  : 15 ms
    Stream size                              : 446 MiB (10%)
    Language                                 : Spanish
    Service kind                             : Complete Main
    Default                                  : Yes
    Forced                                   : No
    Statistics Tags Issue                    : mkvmerge v15.0.0 ('Duel with the Devil') 64-bit 2018-09-27 17:52:57 / mkvmerge v15.0.0 ('Duel with the Devil') 64-bit 2018-09-27 17:52:57 / UTC 2018-09-27T06:00:52Z
    FromStats_BitRate                        : 640000
    FromStats_Duration                       : 01:37:23.296000000
    FromStats_FrameCount                     : 182603
    FromStats_StreamSize                     : 467463680

    Audio #2
    ID                                       : 3
    Format                                   : DTS
    Format/Info                              : Digital Theater Systems
    Mode                                     : 16
    Format settings, Endianness              : Big
    Codec ID                                 : A_DTS
    Duration                                 : 1 h 37 min
    Bit rate mode                            : Constant
    Bit rate                                 : 1 509 kb/s
    Channel(s)                               : 6 channels
    Channel positions                        : Front: L C R, Side: L R, LFE
    Sampling rate                            : 48.0 kHz
    Frame rate                               : 93.750 FPS (512 SPF)
    Bit depth                                : 16 bits
    Compression mode                         : Lossy
    Stream size                              : 1.03 GiB (25%)
    Language                                 : English
    Default                                  : No
    Forced                                   : No
    Statistics Tags Issue                    : mkvmerge v15.0.0 ('Duel with the Devil') 64-bit 2018-09-27 17:52:57 / mkvmerge v15.0.0 ('Duel with the Devil') 64-bit 2018-09-27 17:52:57 / UTC 2018-09-27T06:00:52Z
    FromStats_BitRate                        : 1509000
    FromStats_Duration                       : 01:37:23.296000000
    FromStats_FrameCount                     : 547809
    FromStats_StreamSize                     : 1102191708

    Text #1
    ID                                       : 4
    Format                                   : PGS
    Muxing mode                              : zlib
    Codec ID                                 : S_HDMV/PGS
    Codec ID/Info                            : Picture based subtitle format used on BDs/HD-DVDs
    Language                                 : English
    Default                                  : No
    Forced                                   : No
    Statistics Tags Issue                    : mkvmerge v15.0.0 ('Duel with the Devil') 64-bit 2018-09-27 17:52:57 / mkvmerge v15.0.0 ('Duel with the Devil') 64-bit 2018-09-27 17:52:57 / UTC 2018-09-27T06:00:52Z
    FromStats_BitRate                        : 53284
    FromStats_Duration                       : 01:30:47.161000000
    FromStats_FrameCount                     : 3259
    FromStats_StreamSize                     : 36281109

    Text #2
    ID                                       : 5
    Format                                   : PGS
    Muxing mode                              : zlib
    Codec ID                                 : S_HDMV/PGS
    Codec ID/Info                            : Picture based subtitle format used on BDs/HD-DVDs
    Language                                 : Spanish
    Default                                  : No
    Forced                                   : No
    Statistics Tags Issue                    : mkvmerge v15.0.0 ('Duel with the Devil') 64-bit 2018-09-27 17:52:57 / mkvmerge v15.0.0 ('Duel with the Devil') 64-bit 2018-09-27 17:52:57 / UTC 2018-09-27T06:00:52Z
    FromStats_BitRate                        : 32226
    FromStats_Duration                       : 01:36:29.335000000
    FromStats_FrameCount                     : 2006
    FromStats_StreamSize                     : 23321495

    Text #3
    ID                                       : 6
    Format                                   : PGS
    Muxing mode                              : zlib
    Codec ID                                 : S_HDMV/PGS
    Codec ID/Info                            : Picture based subtitle format used on BDs/HD-DVDs
    Title                                    : Forzado
    Language                                 : Spanish
    Default                                  : Yes
    Forced                                   : Yes
    Statistics Tags Issue                    : mkvmerge v15.0.0 ('Duel with the Devil') 64-bit 2018-09-27 17:52:57 / mkvmerge v15.0.0 ('Duel with the Devil') 64-bit 2018-09-27 17:52:57 / UTC 2018-09-27T06:00:52Z
    FromStats_BitRate                        : 60307
    FromStats_Duration                       : 01:37:05.330000000
    FromStats_FrameCount                     : 3474
    FromStats_StreamSize                     : 43914196

    Menu
    00:00:00.000                             : :Chapter 1
    00:04:28.643                             : :Chapter 2
    00:09:34.824                             : :Chapter 3
    00:16:02.044                             : :Chapter 4
    00:20:03.077                             : :Chapter 5
    00:24:34.932                             : :Chapter 6
    00:31:12.537                             : :Chapter 7
    00:36:49.207                             : :Chapter 8
    00:44:04.725                             : :Chapter 9
    00:49:57.703                             : :Chapter 10
    00:54:49.745                             : :Chapter 11
    01:00:34.881                             : :Chapter 12
    01:06:12.010                             : :Chapter 13
    01:10:32.270                             : :Chapter 14
    01:13:46.380                             : :Chapter 15
    01:24:56.550                             : :Chapter 16

  • Peso: 4.19 GiB

Sinopsis

Hotel transylvania 3 1080p latino mega Nuestra familia de monstruos favorita se embarca en un crucero de lujo para que por fin Drac pueda tomarse un descanso de proveer de vacaciones al resto en el hotel. Es una navegación tranquila para la pandilla de Drac, ya que los monstruos se entregan a toda la diversión a bordo que ofrece el crucero, desde el voleibol de monstruos y las excursiones exóticas, a ponerse al día con sus bronceados de luna. Pero las vacaciones de ensueño se convierten en una pesadilla cuando Mavis se da cuenta de que Drac se ha enamorado de la misteriosa capitana de la nave, Ericka, quien esconde un peligroso secreto que podría destruir a todos los monstruos.

Ficha técnica

Video trailer de la película

Enlaces de descarga

Rip de Bluray

Descargar Hotel Transylvania 3 monstruos de vacaciones (2018) Full 1080p Latino [Placebo]




Aportes de DPeliculasHDmega la pass es:dpeliculashdmega.org Aportes de CinemaniaHD la pass es:cinemaniahdd.com

Películas relacionadas

  • Mision: Imposible 2 (2000) Full 1080p Latino

    2000
    Mision: Imposible 2 (2000) Full 1080p Latino

    3.0 2h 3m 2000

    Descargar Mision: Imposible 2 (2000) Full 1080p Latino, Mega, Google Drive. El agente especial Ethan...

    Director: William H. Burton Jr.

    Género: Acción

    Actores: William Mapother

  • Mision: Imposible (1996) Full 1080p Latino

    1996
    Mision: Imposible (1996) Full 1080p Latino

    3.7 1h 50m 1996

    Mission: Impossible (1996) Full 1080p Latino, Mega, Google Drive. Ethan Hunt es un superespía capaz...

    Director: Nick Moore

    Género: Acción

    Actores: Ving Rhames

  • Los increíbles 2 (2018) Full 1080p Latino

    2018
    Los increíbles 2 (2018) Full 1080p Latino

    4.4 1h 58m 2018

    Helen tiene que liderar una campaña para que los superhéroes regresen, mientras Bob vive su vida "normal"...

    Director: Seong-Young Kim

    Género: Acción

    Actores: Usher

  • La balada de Buster Scruggs (2018) NF 1080p Latino

    2018
    La balada de Buster Scruggs (2018) NF 1080p Latino

    0.0 2h 12m 2018

    Los siempre singulares Joel y Ethan Cohen escriben y dirigen esta antología de seis historias del Salvaje...

    Director: Joel Coen

    Género: Comedia

    Actores: Zoe Kazan

Comentarios 3
  • Santiago - 08 octubre, 2018

    Qué viene siendo PLACEBO?

    • dpelis - 08 octubre, 2018

      ripeo un 80 a 90 la calidad que se puede acercar al bluray BD50

  • ocpgaiden - 27 septiembre, 2018

    Para mi gusto la mejor de las 3 peliculas, gracias y saludos