Hotel Transylvania 3 Monstruos de Vacaciones (2018) 1080p Latino

1.771 vistas
1 estrella2 estrellas3 estrellas4 estrellas5 estrellas (1 votos, promedio: 5,00 de 5)
Cargando…

Información de Hotel Transylvania 3 Monstruos de Vacaciones (2018) 1080p Latino

Datos de la película

  • Calidad: 1080p
  • Audio: Español Latino AC3 5.1 DVD - Ingles AC3 5.1 BLURAY
  • Subtitulos: Español Latino SRT- FORZADOS SRT
  • Resolución: 1920x1040p
  • Formato: MKV
  • Codec: H.264
  • Encoder: Dracarys
  • Mediainfo: Clic para Mostrar Datos Ver
  • Format                                   : Matroska
    Format version                           : Version 4 / Version 2
    File size                                : 3.03 GiB
    Duration                                 : 1 h 45 min
    Overall bit rate                         : 4 117 kb/s
    Movie name                               : CinemaniaHDD.net
    Encoded date                             : UTC 2018-09-27 01:06:58 / UTC 2018-09-26T23:21:49Z
    Writing application                      : mkvmerge v15.0.0 ('Duel with the Devil') 64-bit
    Writing library                          : libebml v1.3.5 + libmatroska v1.4.5 / Lavf57.7.2

    Video
    ID                                       : 1
    Format                                   : AVC
    Format/Info                              : Advanced Video Codec
    Format profile                           : High@L4.1
    Format settings                          : CABAC / 4 Ref Frames
    Format settings, CABAC                   : Yes
    Format settings, RefFrames               : 4 frames
    Codec ID                                 : V_MPEG4/ISO/AVC
    Duration                                 : 1 h 45 min
    Bit rate                                 : 3 012 kb/s
    Nominal bit rate                         : 3 500 kb/s
    Width                                    : 1 920 pixels
    Height                                   : 1 040 pixels
    Display aspect ratio                     : 1.85:1
    Frame rate mode                          : Constant
    Frame rate                               : 23.976 (24000/1001) FPS
    Color space                              : YUV
    Chroma subsampling                       : 4:2:0
    Bit depth                                : 8 bits
    Scan type                                : Progressive
    Bits/(Pixel*Frame)                       : 0.063
    Stream size                              : 2.22 GiB (73%)
    Title                                    : Hotel Transylvania 3 Monstruos de Vacaciones (2018) 1080p Latino
    Writing library                          : x264 core 148 r2708 86b7198
    Encoding settings                        : cabac=1 / ref=4 / deblock=1:0:0 / analyse=0x3:0x113 / me=umh / subme=8 / psy=1 / psy_rd=1.00:0.00 / mixed_ref=1 / me_range=16 / chroma_me=1 / trellis=1 / 8x8dct=1 / cqm=0 / deadzone=21,11 / fast_pskip=1 / chroma_qp_offset=-2 / threads=32 / lookahead_threads=5 / sliced_threads=0 / nr=0 / decimate=1 / interlaced=0 / bluray_compat=0 / constrained_intra=0 / bframes=3 / b_pyramid=2 / b_adapt=2 / b_bias=0 / direct=3 / weightb=1 / open_gop=0 / weightp=2 / keyint=240 / keyint_min=24 / scenecut=40 / intra_refresh=0 / rc_lookahead=50 / rc=abr / mbtree=1 / bitrate=3500 / ratetol=1.0 / qcomp=0.60 / qpmin=0 / qpmax=69 / qpstep=4 / vbv_maxrate=62500 / vbv_bufsize=78125 / nal_hrd=none / filler=0 / ip_ratio=1.40 / aq=1:1.00
    Language                                 : English
    Default                                  : Yes
    Forced                                   : No
    Color range                              : Limited
    Color primaries                          : BT.709
    Transfer characteristics                 : BT.709
    Matrix coefficients                      : BT.709
    Statistics Tags Issue                    : mkvmerge v15.0.0 ('Duel with the Devil') 64-bit 2018-09-27 01:06:58 / mkvmerge v15.0.0 ('Duel with the Devil') 64-bit 2018-09-27 01:06:58 / UTC 2018-09-26T23:21:49Z
    FromStats_BitRate                        : 3399209
    FromStats_Duration                       : 01:37:23.296000000
    FromStats_FrameCount                     : 140099
    FromStats_StreamSize                     : 2482823489

    Audio #1
    ID                                       : 2
    Format                                   : AC-3
    Format/Info                              : Audio Coding 3
    Format settings, Endianness              : Big
    Codec ID                                 : A_AC3
    Duration                                 : 1 h 45 min
    Bit rate mode                            : Constant
    Bit rate                                 : 384 kb/s
    Channel(s)                               : 6 channels
    Channel positions                        : Front: L C R, Side: L R, LFE
    Sampling rate                            : 48.0 kHz
    Frame rate                               : 31.250 FPS (1536 SPF)
    Bit depth                                : 16 bits
    Compression mode                         : Lossy
    Delay relative to video                  : -5 ms
    Stream size                              : 290 MiB (9%)
    Language                                 : Spanish
    Service kind                             : Complete Main
    Default                                  : Yes
    Forced                                   : No
    Statistics Tags Issue                    : mkvmerge v15.0.0 ('Duel with the Devil') 64-bit 2018-09-27 01:06:58 / mkvmerge v15.0.0 ('Duel with the Devil') 64-bit 2018-09-27 01:06:58 / UTC 2018-09-26T23:21:49Z
    FromStats_BitRate                        : 384000
    FromStats_Duration                       : 01:45:25.184000000
    FromStats_FrameCount                     : 197662
    FromStats_StreamSize                     : 303608832

    Audio #2
    ID                                       : 3
    Format                                   : AC-3
    Format/Info                              : Audio Coding 3
    Format settings, Endianness              : Big
    Codec ID                                 : A_AC3
    Duration                                 : 1 h 45 min
    Bit rate mode                            : Constant
    Bit rate                                 : 640 kb/s
    Channel(s)                               : 6 channels
    Channel positions                        : Front: L C R, Side: L R, LFE
    Sampling rate                            : 48.0 kHz
    Frame rate                               : 31.250 FPS (1536 SPF)
    Bit depth                                : 16 bits
    Compression mode                         : Lossy
    Delay relative to video                  : -5 ms
    Stream size                              : 483 MiB (16%)
    Language                                 : English
    Service kind                             : Complete Main
    Default                                  : No
    Forced                                   : No
    Statistics Tags Issue                    : mkvmerge v15.0.0 ('Duel with the Devil') 64-bit 2018-09-27 01:06:58 / mkvmerge v15.0.0 ('Duel with the Devil') 64-bit 2018-09-27 01:06:58 / UTC 2018-09-26T23:21:49Z
    FromStats_BitRate                        : 640000
    FromStats_Duration                       : 01:37:23.264000000
    FromStats_FrameCount                     : 182602
    FromStats_StreamSize                     : 467461120

    Text #1
    ID                                       : 4
    Format                                   : UTF-8
    Codec ID                                 : S_TEXT/UTF8
    Codec ID/Info                            : UTF-8 Plain Text
    Title                                    : Forzados
    Language                                 : Spanish
    Default                                  : Yes
    Forced                                   : Yes
    Statistics Tags Issue                    : mkvmerge v15.0.0 ('Duel with the Devil') 64-bit 2018-09-27 01:06:58 / mkvmerge v15.0.0 ('Duel with the Devil') 64-bit 2018-09-27 01:06:58 / UTC 2018-09-26T23:21:49Z
    FromStats_BitRate                        : 0
    FromStats_Duration                       : 01:32:52.155000000
    FromStats_FrameCount                     : 4
    FromStats_StreamSize                     : 101

    Text #2
    ID                                       : 5
    Format                                   : UTF-8
    Codec ID                                 : S_TEXT/UTF8
    Codec ID/Info                            : UTF-8 Plain Text
    Language                                 : Spanish
    Default                                  : No
    Forced                                   : No
    Statistics Tags Issue                    : mkvmerge v15.0.0 ('Duel with the Devil') 64-bit 2018-09-27 01:06:58 / mkvmerge v15.0.0 ('Duel with the Devil') 64-bit 2018-09-27 01:06:58 / UTC 2018-09-26T23:21:49Z
    FromStats_BitRate                        : 43
    FromStats_Duration                       : 01:36:29.331000000
    FromStats_FrameCount                     : 1004
    FromStats_StreamSize                     : 31694

    Menu
    00:00:00.000                             : :00:00:00.000
    00:04:28.977                             : :00:04:28.935
    00:09:34.824                             : :00:09:34.824
    00:16:02.044                             : :00:16:02.044
    00:20:03.077                             : :00:20:03.077
    00:24:34.932                             : :00:24:34.932
    00:31:12.537                             : :00:31:12.537
    00:36:49.207                             : :00:36:49.207
    00:44:04.809                             : :00:44:04.725
    00:49:57.703                             : :00:49:57.703
    00:54:49.745                             : :00:54:49.745
    01:00:34.881                             : :01:00:34.881
    01:06:12.010                             : :01:06:12.010
    01:10:32.270                             : :01:10:32.270
    01:13:46.380                             : :01:13:46.380
    01:24:56.550                             : :01:24:56.550

  • Peso: 3.03 GiB

Sinopsis

Nuestra familia de monstruos favorita se embarca en un crucero de lujo para que por fin Drac pueda tomarse un descanso de proveer de vacaciones al resto en el hotel. Es una navegación tranquila para la pandilla de Drac, ya que los monstruos se entregan a toda la diversión a bordo que ofrece el crucero, desde el voleibol de monstruos y las excursiones exóticas, a ponerse al día con sus bronceados de luna. Pero las vacaciones de ensueño se convierten en una pesadilla cuando Mavis se da cuenta de que Drac se ha enamorado de la misteriosa capitana de la nave, Ericka, quien esconde un peligroso secreto que podría destruir a todos los monstruos.

Ficha técnica

Video trailer de la película

Enlaces de descarga

Rip de Bluray

Descargar Hotel Transylvania 3 Monstruos de Vacaciones (2018) 1080p Latino




Aportes de DPeliculasHDmega la pass es:dpeliculashdmega.org Aportes de CinemaniaHD la pass es:cinemaniahdd.com
Guardado en : Animación , Comedia , Familia , Fantasía

Películas relacionadas

  • Los increíbles 2 (2018) Full 1080p Latino

    2018
    Los increíbles 2 (2018) Full 1080p Latino

    4.4 1h 58m 2018

    Helen tiene que liderar una campaña para que los superhéroes regresen, mientras Bob vive su vida "normal"...

    Director: Seong-Young Kim

    Género: Acción

    Actores: Usher

  • La balada de Buster Scruggs (2018) NF 1080p Latino

    2018
    La balada de Buster Scruggs (2018) NF 1080p Latino

    0.0 2h 12m 2018

    Los siempre singulares Joel y Ethan Cohen escriben y dirigen esta antología de seis historias del Salvaje...

    Director: Joel Coen

    Género: Comedia

    Actores: Zoe Kazan

  • Cambio de princesa (2018) NF 1080p Latino

    2018
    Cambio de princesa (2018) NF 1080p Latino

    0.0 1h 41m 2018

    Una repostera de Chicago y una futura princesa descubren que parecen gemelas, así que idean un plan...

    Director: Mike Rohl

    Género: Comedia

    Actores: Vanessa Hudgens

  • La pequeña brujita (2018) AMZN 1080p Latino

    2018
    La pequeña brujita (2018) AMZN 1080p Latino

    5.0 1h 43m 2018

    Descargar La pequeña brujita (2018) AMZN 1080p Latino, Mega, Google Drive. La pequeña bruja sólo tiene...

    Director: Mike Schaerer

    Género: Comedia

    Actores: Verena Bosshard

Comentarios 0