Hotel Transylvania 2 (2015) Full 1080p Latino

1.308 vistas
1 estrella2 estrellas3 estrellas4 estrellas5 estrellas (4 votos, promedio: 5,00 de 5)
Cargando…

Información de Hotel Transylvania 2 (2015) Full 1080p Latino

Datos de la película

  • Calidad: Full 1080p
  • Audio: Español Latino AC3 5.1 BLURAY - Ingles DTS 5.1 BLURAY
  • Subtitulos: Español Latino PGS - Ingles PGS
  • Resolución: 1920x1080p
  • Formato: MKV
  • Codec: H.264
  • Encoder: Dracarys
  • Mediainfo: Clic para Mostrar Datos Ver
  • Format                                   : Matroska
    Format version                           : Version 4 / Version 2
    File size                                : 3.39 GiB
    Duration                                 : 1 h 29 min
    Overall bit rate                         : 5 431 kb/s
    Movie name                               : CinemaniaHDD.net
    Encoded date                             : UTC 2018-09-27 17:51:14 / UTC 2018-09-27T03:48:42Z
    Writing application                      : mkvmerge v15.0.0 ('Duel with the Devil') 64-bit
    Writing library                          : libebml v1.3.5 + libmatroska v1.4.5 / Lavf57.7.2

    Video
    ID                                       : 1
    Format                                   : AVC
    Format/Info                              : Advanced Video Codec
    Format profile                           : High@L4.1
    Format settings                          : CABAC / 4 Ref Frames
    Format settings, CABAC                   : Yes
    Format settings, RefFrames               : 4 frames
    Codec ID                                 : V_MPEG4/ISO/AVC
    Duration                                 : 1 h 29 min
    Bit rate                                 : 3 174 kb/s
    Width                                    : 1 920 pixels
    Height                                   : 1 080 pixels
    Display aspect ratio                     : 16:9
    Frame rate mode                          : Constant
    Frame rate                               : 23.976 (24000/1001) FPS
    Color space                              : YUV
    Chroma subsampling                       : 4:2:0
    Bit depth                                : 8 bits
    Scan type                                : Progressive
    Bits/(Pixel*Frame)                       : 0.064
    Stream size                              : 1.98 GiB (58%)
    Writing library                          : x264 core 148 r2708 86b7198
    Encoding settings                        : cabac=1 / ref=4 / deblock=1:0:0 / analyse=0x3:0x133 / me=esa / subme=10 / psy=1 / psy_rd=1.00:0.00 / mixed_ref=1 / me_range=24 / chroma_me=1 / trellis=2 / 8x8dct=1 / cqm=0 / deadzone=21,11 / fast_pskip=1 / chroma_qp_offset=-2 / threads=34 / lookahead_threads=5 / sliced_threads=0 / nr=0 / decimate=1 / interlaced=0 / bluray_compat=0 / constrained_intra=0 / bframes=8 / b_pyramid=2 / b_adapt=2 / b_bias=0 / direct=3 / weightb=1 / open_gop=0 / weightp=2 / keyint=240 / keyint_min=24 / scenecut=40 / intra_refresh=0 / rc_lookahead=60 / rc=crf / mbtree=1 / crf=20.0 / qcomp=0.60 / qpmin=0 / qpmax=69 / qpstep=4 / vbv_maxrate=62500 / vbv_bufsize=78125 / crf_max=0.0 / nal_hrd=none / filler=0 / ip_ratio=1.40 / aq=1:1.00
    Language                                 : English
    Default                                  : Yes
    Forced                                   : No
    Color range                              : Limited
    Color primaries                          : BT.709
    Transfer characteristics                 : BT.709
    Matrix coefficients                      : BT.709
    Statistics Tags Issue                    : mkvmerge v15.0.0 ('Duel with the Devil') 64-bit 2018-09-27 17:51:14 / mkvmerge v15.0.0 ('Duel with the Devil') 64-bit 2018-09-27 17:51:14 / UTC 2018-09-27T03:48:42Z
    FromStats_BitRate                        : 3255687
    FromStats_Duration                       : 01:29:18.312000000
    FromStats_FrameCount                     : 128471
    FromStats_StreamSize                     : 2180623916

    Audio #1
    ID                                       : 2
    Format                                   : AC-3
    Format/Info                              : Audio Coding 3
    Format settings, Endianness              : Big
    Codec ID                                 : A_AC3
    Duration                                 : 1 h 29 min
    Bit rate mode                            : Constant
    Bit rate                                 : 640 kb/s
    Channel(s)                               : 6 channels
    Channel positions                        : Front: L C R, Side: L R, LFE
    Sampling rate                            : 48.0 kHz
    Frame rate                               : 31.250 FPS (1536 SPF)
    Bit depth                                : 16 bits
    Compression mode                         : Lossy
    Stream size                              : 409 MiB (12%)
    Language                                 : Spanish
    Service kind                             : Complete Main
    Default                                  : Yes
    Forced                                   : No
    Statistics Tags Issue                    : mkvmerge v15.0.0 ('Duel with the Devil') 64-bit 2018-09-27 17:51:14 / mkvmerge v15.0.0 ('Duel with the Devil') 64-bit 2018-09-27 17:51:14 / UTC 2018-09-27T03:48:42Z
    FromStats_BitRate                        : 640000
    FromStats_Duration                       : 01:29:18.368000000
    FromStats_FrameCount                     : 167449
    FromStats_StreamSize                     : 428669440

    Audio #2
    ID                                       : 3
    Format                                   : DTS
    Format/Info                              : Digital Theater Systems
    Mode                                     : 16
    Format settings, Endianness              : Big
    Codec ID                                 : A_DTS
    Duration                                 : 1 h 29 min
    Bit rate mode                            : Constant
    Bit rate                                 : 1 509 kb/s
    Channel(s)                               : 6 channels
    Channel positions                        : Front: L C R, Side: L R, LFE
    Sampling rate                            : 48.0 kHz
    Frame rate                               : 93.750 FPS (512 SPF)
    Bit depth                                : 16 bits
    Compression mode                         : Lossy
    Stream size                              : 964 MiB (28%)
    Language                                 : English
    Default                                  : No
    Forced                                   : No
    Statistics Tags Issue                    : mkvmerge v15.0.0 ('Duel with the Devil') 64-bit 2018-09-27 17:51:14 / mkvmerge v15.0.0 ('Duel with the Devil') 64-bit 2018-09-27 17:51:14 / UTC 2018-09-27T03:48:42Z
    FromStats_BitRate                        : 1508999
    FromStats_Duration                       : 01:29:18.347000000
    FromStats_FrameCount                     : 502345
    FromStats_StreamSize                     : 1010718140

    Text #1
    ID                                       : 4
    Format                                   : PGS
    Muxing mode                              : zlib
    Codec ID                                 : S_HDMV/PGS
    Codec ID/Info                            : Picture based subtitle format used on BDs/HD-DVDs
    Language                                 : English
    Default                                  : No
    Forced                                   : No
    Statistics Tags Issue                    : mkvmerge v15.0.0 ('Duel with the Devil') 64-bit 2018-09-27 17:51:14 / mkvmerge v15.0.0 ('Duel with the Devil') 64-bit 2018-09-27 17:51:14 / UTC 2018-09-27T03:48:42Z
    FromStats_BitRate                        : 44931
    FromStats_Duration                       : 01:19:05.533000000
    FromStats_FrameCount                     : 2621
    FromStats_StreamSize                     : 26653040

    Text #2
    ID                                       : 5
    Format                                   : PGS
    Muxing mode                              : zlib
    Codec ID                                 : S_HDMV/PGS
    Codec ID/Info                            : Picture based subtitle format used on BDs/HD-DVDs
    Language                                 : Spanish
    Default                                  : No
    Forced                                   : No
    Statistics Tags Issue                    : mkvmerge v15.0.0 ('Duel with the Devil') 64-bit 2018-09-27 17:51:14 / mkvmerge v15.0.0 ('Duel with the Devil') 64-bit 2018-09-27 17:51:14 / UTC 2018-09-27T03:48:42Z
    FromStats_BitRate                        : 33155
    FromStats_Duration                       : 01:28:05.614000000
    FromStats_FrameCount                     : 2416
    FromStats_StreamSize                     : 21905988

    Menu
    00:00:00.000                             : :Chapter 1
    00:05:46.471                             : :Chapter 2
    00:09:17.182                             : :Chapter 3
    00:13:09.706                             : :Chapter 4
    00:19:29.126                             : :Chapter 5
    00:22:42.570                             : :Chapter 6
    00:30:05.304                             : :Chapter 7
    00:36:12.712                             : :Chapter 8
    00:40:00.982                             : :Chapter 9
    00:45:54.377                             : :Chapter 10
    00:51:22.454                             : :Chapter 11
    00:56:54.912                             : :Chapter 12
    01:04:01.921                             : :Chapter 13
    01:08:32.817                             : :Chapter 14
    01:13:29.405                             : :Chapter 15
    01:18:35.878                             : :Chapter 16

  • Peso: 3.39 GiB

Sinopsis

Hotel transylvania 2 1080p latino mega 1 link Todo parece mejorar en el Hotel Transilvania. La rígida norma establecida por Drácula de “sólo para monstruos” se ha suprimido y se aceptan también huéspedes humanos. Lo que preocupa al conde es que que su adorable nieto Dennis, medio humano y medio vampiro, no dé señal alguna de vampirismo. Aprovechando que Mavis ha ido a visitar a sus suegros humanos, Drácula recluta a sus amigos Frank, Murray, Wayne y Griffin para hacer que Dennis pase por un campamento de “entrenamiento de monstruos”. Lo que ignoran es que Vlad, el gruñón padre de Drácula, está a punto de llegar al hotel. Y cuando descubra que su bisnieto no es de sangre pura y que los humanos pueden frecuentar el establecimiento las cosas se complicarán. Secuela de Hotel Transilvania (2012).

Ficha técnica

Video trailer de la película

Enlaces de descarga

Rip de Bluray

Descargar Hotel Transylvania 2 (2015) Full 1080p Latino




Aportes de DPeliculasHDmega la pass es:dpeliculashdmega.org Aportes de CinemaniaHD la pass es:cinemaniahdd.com

Películas relacionadas

Comentarios 1
  • ocpgaiden - 27 septiembre, 2018

    gracias por la pelicula, saludos