×

¿Problemas para descargar con Mozilla, EDGE? Deshabilita la opción "Abrir vinculos en una pestaña nueva" tal como lo muestra ésta imagen.

Hotel Transylvania 2 (2015) REMUX 1080p Latino – CMHDD

183 vistas

Información de Hotel Transylvania 2 (2015) REMUX 1080p Latino – CMHDD

Datos de la película

  • Calidad: Full 1080p
  • Audio: Español Latino AC3 5.1 BLURAY - Ingles DTS 5.1 BLURAY
  • Subtitulos: Español Latino PGS
  • Resolución: 1920x1080p
  • Formato: MKV
  • Codec: H.264
  • Encoder: Dracarys
  • Mediainfo: Clic para Mostrar Datos Ver
  • Format                      : Matroska
    Format version              : Version 4
    File size                   : 18.0 GiB
    Duration                    : 1 h 29 min
    Overall bit rate mode       : Variable
    Overall bit rate            : 28.8 Mb/s
    Movie name                  : Hotel Transylvania 2 (2015) REMUX 1080p Latino - CMHDD
    Encoded date                : UTC 2021-07-12 04:21:38
    Writing application         : mkvmerge v56.1.0 ('My Friend') 64-bit
    Writing library             : libebml v1.4.2 + libmatroska v1.6.4

    Video
    ID                          : 1
    Format                      : AVC
    Format/Info                 : Advanced Video Codec
    Format profile              : High@L4.1
    Format settings             : CABAC / 2 Ref Frames
    Format settings, CABAC      : Yes
    Format settings, Reference  : 2 frames
    Format settings, GOP        : M=3, N=9
    Codec ID                    : V_MPEG4/ISO/AVC
    Duration                    : 1 h 29 min
    Bit rate mode               : Variable
    Bit rate                    : 25.9 Mb/s
    Width                       : 1 920 pixels
    Height                      : 1 080 pixels
    Display aspect ratio        : 16:9
    Frame rate mode             : Constant
    Frame rate                  : 23.976 (24000/1001) FPS
    Color space                 : YUV
    Chroma subsampling          : 4:2:0
    Bit depth                   : 8 bits
    Scan type                   : Progressive
    Bits/(Pixel*Frame)          : 0.522
    Stream size                 : 16.2 GiB (90%)
    Default                     : Yes
    Forced                      : No

    Audio #1
    ID                          : 2
    Format                      : DTS XLL
    Format/Info                 : Digital Theater Systems
    Commercial name             : DTS-HD Master Audio
    Codec ID                    : A_DTS
    Duration                    : 1 h 29 min
    Bit rate mode               : Variable
    Bit rate                    : 2 198 kb/s
    Channel(s)                  : 6 channels
    Channel layout              : C L R Ls Rs LFE
    Sampling rate               : 48.0 kHz
    Frame rate                  : 93.750 FPS (512 SPF)
    Bit depth                   : 16 bits
    Compression mode            : Lossless
    Stream size                 : 1.37 GiB (8%)
    Language                    : English
    Default                     : No
    Forced                      : No

    Audio #2
    ID                          : 3
    Format                      : AC-3
    Format/Info                 : Audio Coding 3
    Commercial name             : Dolby Digital
    Codec ID                    : A_AC3
    Duration                    : 1 h 29 min
    Bit rate mode               : Constant
    Bit rate                    : 640 kb/s
    Channel(s)                  : 6 channels
    Channel layout              : L R C LFE Ls Rs
    Sampling rate               : 48.0 kHz
    Frame rate                  : 31.250 FPS (1536 SPF)
    Compression mode            : Lossy
    Stream size                 : 409 MiB (2%)
    Language                    : Spanish
    Service kind                : Complete Main
    Default                     : Yes
    Forced                      : No

    Text #1
    ID                          : 4
    Format                      : PGS
    Muxing mode                 : zlib
    Codec ID                    : S_HDMV/PGS
    Codec ID/Info               : Picture based subtitle format used on BDs/HD-DVDs
    Duration                    : 1 h 28 min
    Bit rate                    : 33.2 kb/s
    Count of elements           : 2416
    Stream size                 : 20.9 MiB (0%)
    Language                    : Spanish
    Default                     : No
    Forced                      : No

    Text #2
    ID                          : 5
    Format                      : PGS
    Muxing mode                 : zlib
    Codec ID                    : S_HDMV/PGS
    Codec ID/Info               : Picture based subtitle format used on BDs/HD-DVDs
    Duration                    : 1 h 21 min
    Bit rate                    : 59.1 kb/s
    Count of elements           : 3364
    Stream size                 : 34.6 MiB (0%)
    Language                    : Spanish
    Default                     : No
    Forced                      : No

  • Peso: 18.0 GiB

Sinopsis

Todo parece mejorar en el Hotel Transilvania. La rígida norma establecida por Drácula de “sólo para monstruos” se ha suprimido y se aceptan también huéspedes humanos. Lo que preocupa al conde es que que su adorable nieto Dennis, medio humano y medio vampiro, no dé señal alguna de vampirismo. Aprovechando que Mavis ha ido a visitar a sus suegros humanos, Drácula recluta a sus amigos Frank, Murray, Wayne y Griffin para hacer que Dennis pase por un campamento de “entrenamiento de monstruos”. Lo que ignoran es que Vlad, el gruñón padre de Drácula, está a punto de llegar al hotel. Y cuando descubra que su bisnieto no es de sangre pura y que los humanos pueden frecuentar el establecimiento las cosas se complicarán. Secuela de Hotel Transilvania (2012).

Ficha técnica

Video trailer de la película

Enlaces de descarga

Rip de Bluray

Descargar Hotel Transylvania 2 (2015) REMUX 1080p Latino – CMHDD


Aportes de DPeliculasHDmega la pass es:dpeliculashdmega.org Aportes de CinemaniaHD la pass es:cinemaniahdd.com
Guardado en : Animación , Comedia , Familia , Fantasía

Películas relacionadas

descargar Hotel Transylvania 2 (2015) REMUX 1080p Latino – CMHDD Full 1080p 1080p gratis, Hotel Transylvania 2 (2015) REMUX 1080p Latino – CMHDD Full 1080p mega 1 link, Hotel Transylvania 2 (2015) REMUX 1080p Latino – CMHDD Full 1080p pelicula completa, descargar Hotel Transylvania 2 (2015) REMUX 1080p Latino – CMHDD Full 1080p gratis en mega.

Hotel Transylvania 2 (2015) REMUX 1080p Latino – CMHDD pelicula full hd, Hotel Transylvania 2 (2015) REMUX 1080p Latino – CMHDD mega latino, Hotel Transylvania 2 (2015) REMUX 1080p Latino – CMHDD 4k latino, Hotel Transylvania 2 (2015) REMUX 1080p Latino – CMHDD pelicula completa, Hotel Transylvania 2 (2015) REMUX 1080p Latino – CMHDD descargar gratis, descargar Hotel Transylvania 2 (2015) REMUX 1080p Latino – CMHDD pelicula latino, Hotel Transylvania 2 (2015) REMUX 1080p Latino – CMHDD 1 link mega, Hotel Transylvania 2 (2015) REMUX 1080p Latino – CMHDD 1 link google drive, Hotel Transylvania 2 (2015) REMUX 1080p Latino – CMHDD hd 1080p latino.