Hotel Transylvania (2012) Full 1080p Latino

1.606 vistas
1 estrella2 estrellas3 estrellas4 estrellas5 estrellas (4 votos, promedio: 5,00 de 5)
Cargando…

Información de Hotel Transylvania (2012) Full 1080p Latino

Datos de la película

  • Calidad: Full 1080p
  • Audio: Español Latino AC3 5.1 BLURAY - Ingles DTS 5.1 BLURAY
  • Subtitulos: Español Latino PGS - Ingles PGS
  • Resolución: 1920x1080p
  • Formato: MKV
  • Codec: H.264
  • Encoder: Dracarys
  • Mediainfo: Clic para Mostrar Datos Ver
  • Format                                   : Matroska
    Format version                           : Version 4 / Version 2
    File size                                : 3.96 GiB
    Duration                                 : 1 h 31 min
    Overall bit rate                         : 6 199 kb/s
    Movie name                               : CinemaniaHDD.net
    Encoded date                             : UTC 2018-09-27 17:48:15 / UTC 2018-09-27T01:10:18Z
    Writing application                      : mkvmerge v15.0.0 ('Duel with the Devil') 64-bit
    Writing library                          : libebml v1.3.5 + libmatroska v1.4.5 / Lavf57.7.2

    Video
    ID                                       : 1
    Format                                   : AVC
    Format/Info                              : Advanced Video Codec
    Format profile                           : [email protected]
    Format settings                          : CABAC / 4 Ref Frames
    Format settings, CABAC                   : Yes
    Format settings, RefFrames               : 4 frames
    Codec ID                                 : V_MPEG4/ISO/AVC
    Duration                                 : 1 h 31 min
    Bit rate                                 : 3 927 kb/s
    Width                                    : 1 920 pixels
    Height                                   : 1 080 pixels
    Display aspect ratio                     : 16:9
    Frame rate mode                          : Constant
    Frame rate                               : 23.976 (24000/1001) FPS
    Color space                              : YUV
    Chroma subsampling                       : 4:2:0
    Bit depth                                : 8 bits
    Scan type                                : Progressive
    Bits/(Pixel*Frame)                       : 0.079
    Stream size                              : 2.51 GiB (63%)
    Writing library                          : x264 core 148 r2708 86b7198
    Encoding settings                        : cabac=1 / ref=4 / deblock=1:0:0 / analyse=0x3:0x133 / me=esa / subme=10 / psy=1 / psy_rd=1.00:0.00 / mixed_ref=1 / me_range=24 / chroma_me=1 / trellis=2 / 8x8dct=1 / cqm=0 / deadzone=21,11 / fast_pskip=1 / chroma_qp_offset=-2 / threads=34 / lookahead_threads=5 / sliced_threads=0 / nr=0 / decimate=1 / interlaced=0 / bluray_compat=0 / constrained_intra=0 / bframes=8 / b_pyramid=2 / b_adapt=2 / b_bias=0 / direct=3 / weightb=1 / open_gop=0 / weightp=2 / keyint=240 / keyint_min=24 / scenecut=40 / intra_refresh=0 / rc_lookahead=60 / rc=crf / mbtree=1 / crf=20.0 / qcomp=0.60 / qpmin=0 / qpmax=69 / qpstep=4 / vbv_maxrate=62500 / vbv_bufsize=78125 / crf_max=0.0 / nal_hrd=none / filler=0 / ip_ratio=1.40 / aq=1:1.00
    Language                                 : English
    Default                                  : Yes
    Forced                                   : No
    Color range                              : Limited
    Color primaries                          : BT.709
    Transfer characteristics                 : BT.709
    Matrix coefficients                      : BT.709
    Statistics Tags Issue                    : mkvmerge v15.0.0 ('Duel with the Devil') 64-bit 2018-09-27 17:48:15 / mkvmerge v15.0.0 ('Duel with the Devil') 64-bit 2018-09-27 17:48:15 / UTC 2018-09-27T01:10:18Z
    FromStats_BitRate                        : 4026639
    FromStats_Duration                       : 01:31:31.445000000
    FromStats_FrameCount                     : 131663
    FromStats_StreamSize                     : 2764008513

    Audio #1
    ID                                       : 2
    Format                                   : AC-3
    Format/Info                              : Audio Coding 3
    Format settings, Endianness              : Big
    Codec ID                                 : A_AC3
    Duration                                 : 1 h 31 min
    Bit rate mode                            : Constant
    Bit rate                                 : 640 kb/s
    Channel(s)                               : 6 channels
    Channel positions                        : Front: L C R, Side: L R, LFE
    Sampling rate                            : 48.0 kHz
    Frame rate                               : 31.250 FPS (1536 SPF)
    Bit depth                                : 16 bits
    Compression mode                         : Lossy
    Stream size                              : 419 MiB (10%)
    Language                                 : Spanish
    Service kind                             : Complete Main
    Default                                  : Yes
    Forced                                   : No
    Statistics Tags Issue                    : mkvmerge v15.0.0 ('Duel with the Devil') 64-bit 2018-09-27 17:48:15 / mkvmerge v15.0.0 ('Duel with the Devil') 64-bit 2018-09-27 17:48:15 / UTC 2018-09-27T01:10:18Z
    FromStats_BitRate                        : 640000
    FromStats_Duration                       : 01:31:31.488000000
    FromStats_FrameCount                     : 171609
    FromStats_StreamSize                     : 439319040

    Audio #2
    ID                                       : 3
    Format                                   : DTS
    Format/Info                              : Digital Theater Systems
    Mode                                     : 16
    Format settings, Endianness              : Big
    Codec ID                                 : A_DTS
    Duration                                 : 1 h 31 min
    Bit rate mode                            : Constant
    Bit rate                                 : 1 509 kb/s
    Channel(s)                               : 6 channels
    Channel positions                        : Front: L C R, Side: L R, LFE
    Sampling rate                            : 48.0 kHz
    Frame rate                               : 93.750 FPS (512 SPF)
    Bit depth                                : 16 bits
    Compression mode                         : Lossy
    Delay relative to video                  : 21 ms
    Stream size                              : 988 MiB (24%)
    Language                                 : English
    Default                                  : No
    Forced                                   : No
    Statistics Tags Issue                    : mkvmerge v15.0.0 ('Duel with the Devil') 64-bit 2018-09-27 17:48:15 / mkvmerge v15.0.0 ('Duel with the Devil') 64-bit 2018-09-27 17:48:15 / UTC 2018-09-27T01:10:18Z
    FromStats_BitRate                        : 1508999
    FromStats_Duration                       : 01:31:31.457000000
    FromStats_FrameCount                     : 514824
    FromStats_StreamSize                     : 1035825888

    Text #1
    ID                                       : 4
    Format                                   : PGS
    Muxing mode                              : zlib
    Codec ID                                 : S_HDMV/PGS
    Codec ID/Info                            : Picture based subtitle format used on BDs/HD-DVDs
    Language                                 : English
    Default                                  : No
    Forced                                   : No
    Statistics Tags Issue                    : mkvmerge v15.0.0 ('Duel with the Devil') 64-bit 2018-09-27 17:48:15 / mkvmerge v15.0.0 ('Duel with the Devil') 64-bit 2018-09-27 17:48:15 / UTC 2018-09-27T01:10:18Z
    FromStats_BitRate                        : 40404
    FromStats_Duration                       : 01:25:06.476000000
    FromStats_FrameCount                     : 2980
    FromStats_StreamSize                     : 25790623

    Text #2
    ID                                       : 5
    Format                                   : PGS
    Muxing mode                              : zlib
    Codec ID                                 : S_HDMV/PGS
    Codec ID/Info                            : Picture based subtitle format used on BDs/HD-DVDs
    Language                                 : Spanish
    Default                                  : No
    Forced                                   : No
    Statistics Tags Issue                    : mkvmerge v15.0.0 ('Duel with the Devil') 64-bit 2018-09-27 17:48:15 / mkvmerge v15.0.0 ('Duel with the Devil') 64-bit 2018-09-27 17:48:15 / UTC 2018-09-27T01:10:18Z
    FromStats_BitRate                        : 40219
    FromStats_Duration                       : 01:24:42.411000000
    FromStats_FrameCount                     : 2589
    FromStats_StreamSize                     : 25551477

    Menu
    00:00:00.000                             : :Chapter 1
    00:04:48.580                             : :Chapter 2
    00:10:23.790                             : :Chapter 3
    00:14:19.275                             : :Chapter 4
    00:19:25.498                             : :Chapter 5
    00:25:11.218                             : :Chapter 6
    00:29:49.413                             : :Chapter 7
    00:35:50.523                             : :Chapter 8
    00:41:11.636                             : :Chapter 9
    00:46:29.537                             : :Chapter 10
    00:53:50.227                             : :Chapter 11
    00:57:44.795                             : :Chapter 12
    01:04:15.268                             : :Chapter 13
    01:08:48.499                             : :Chapter 14
    01:15:20.599                             : :Chapter 15
    01:18:50.643                             : :Chapter 16

  • Peso: 3.96 GiB

Sinopsis

 Hotel transylvania 1 completa en español Drácula regenta un hotel en el se alojan personajes como Frankenstein, la Momia, el Hombre Invisible, hombres-lobo… El problema del conde es que tiene una hija de espíritu aventurero a la que le resulta difícil controlar. El conflicto surge cuando se aloja en el hotel un ser humano que se siente atraído por la hija del dueño.

Ficha técnica

Video trailer de la película

Enlaces de descarga

Rip de Bluray

Descargar Hotel Transylvania (2012) Full 1080p Latino




Aportes de DPeliculasHDmega la pass es:dpeliculashdmega.org Aportes de CinemaniaHD la pass es:cinemaniahdd.com

Películas relacionadas

  • El Reino de los Supermanes (2019) 1080p Latino

    2019
    El Reino de los Supermanes (2019) 1080p Latino

    5.0 1h 27m 2019

    Descargar El Reino de los Supermanes (2019) 1080p Latino, Mega, Google Drive, Torrent. Superman ha muerto...

    Director: Sam Liu

    Género: Acción

    Actores: Trevor Devall

  • Campeones (2018) HD 1080p Español

    2018
    Campeones (2018) HD 1080p Español

    0.0 2h 4m 2018

    Descargar Campeones (2018) HD 1080p Español, Mega, Google Drive, Torrent. Marco, un entrenador profesional...

    Director: Javier Fesser

    Género: Castellano

    Actores: Yiyo Alonso

  • Sorry For Your Loss (2018) AMZN 1080p Latino

    2018
    Sorry For Your Loss (2018) AMZN 1080p Latino

    5.0 1h 40m 2018

    Sorry for Your Loss es una comedia oscura que narra la historia de una joven viuda Leigh Gibbs. Para...

    Director: Collin Friesen

    Género: Comedia

    Actores: Sandrine Holt

  • Bernie the Dolphin (2018) WEB-DL 1080p Latino

    2018
    Bernie the Dolphin (2018) WEB-DL 1080p Latino

    0.0 1h 28m 2018

    Ubicada en San Agustín, Florida, trata sobre un hermano y una hermana que se hacen amigos de un delfín...

    Director: Kirk Harris

    Género: Acción

    Actores: Stelio Savante

Comentarios 1
  • ocpgaiden - 27 septiembre, 2018

    Gracias por las 3 peliculas de hotel transylvania, saludos