×

¿Problemas para descargar con Mozilla, EDGE? Deshabilita la opción "Abrir vinculos en una pestaña nueva" tal como lo muestra ésta imagen.

Hot Summer Nights (2017) AMZN WEB-DL 1080p Latino

82 vistas

Información de Hot Summer Nights (2017) AMZN WEB-DL 1080p Latino

Datos de la película

  • Calidad: 1080p
  • Audio: Español Latino AC3 2.0 WEB-DL - Ingles AC3 5.1 WEB-DL
  • Subtitulos: Español Latino SRT- FORZADOS SRT
  • Resolución: 1920x1080
  • Formato: MKV
  • Codec: H.264
  • Encoder: cinemaniahdd
  • Mediainfo: Clic para Mostrar Datos Ver
  • Hot Summer Nights (2017) AMZN WEB-DL 1080p Latino [CNMNHDD].mkv
    Format                      : Matroska
    Format version              : Version 4
    File size                   : 6.92 GiB
    Duration                    : 1 h 48 min
    Overall bit rate            : 9 148 kb/s
    Movie name                  : Hot Summer Nights (2017) [1080p] - CinemaniaHDD.Net
    Encoded date                : UTC 2022-09-30 05:49:07
    Writing application         : mkvmerge v56.1.0 ('My Friend') 64-bit
    Writing library             : libebml v1.4.2 + libmatroska v1.6.4

    Video
    ID                          : 1
    Format                      : AVC
    Format/Info                 : Advanced Video Codec
    Format profile              : High@L4
    Format settings             : CABAC / 4 Ref Frames
    Format settings, CABAC      : Yes
    Format settings, Reference  : 4 frames
    Codec ID                    : V_MPEG4/ISO/AVC
    Duration                    : 1 h 48 min
    Bit rate mode               : Constant
    Bit rate                    : 8 122 kb/s
    Nominal bit rate            : 10 000 kb/s
    Width                       : 1 920 pixels
    Height                      : 1 080 pixels
    Display aspect ratio        : 16:9
    Frame rate mode             : Constant
    Frame rate                  : 23.976 (24000/1001) FPS
    Color space                 : YUV
    Chroma subsampling          : 4:2:0
    Bit depth                   : 8 bits
    Scan type                   : Progressive
    Bits/(Pixel*Frame)          : 0.163
    Stream size                 : 6.14 GiB (89%)
    Title                       : CinemaniaHDD
    Default                     : Yes
    Forced                      : No
    Color range                 : Limited
    Color primaries             : BT.709
    Transfer characteristics    : BT.709
    Matrix coefficients         : BT.709

    Audio #1
    ID                          : 2
    Format                      : AC-3
    Format/Info                 : Audio Coding 3
    Commercial name             : Dolby Digital
    Codec ID                    : A_AC3
    Duration                    : 1 h 48 min
    Bit rate mode               : Constant
    Bit rate                    : 384 kb/s
    Channel(s)                  : 2 channels
    Channel layout              : L R
    Sampling rate               : 48.0 kHz
    Frame rate                  : 31.250 FPS (1536 SPF)
    Compression mode            : Lossy
    Stream size                 : 297 MiB (4%)
    Title                       : Español latino [CinemaniaHDD]
    Language                    : Spanish
    Service kind                : Complete Main
    Default                     : Yes
    Forced                      : No

    Audio #2
    ID                          : 3
    Format                      : E-AC-3
    Format/Info                 : Enhanced AC-3
    Commercial name             : Dolby Digital Plus
    Codec ID                    : A_EAC3
    Duration                    : 1 h 48 min
    Bit rate mode               : Constant
    Bit rate                    : 640 kb/s
    Channel(s)                  : 6 channels
    Channel layout              : L R C LFE Ls Rs
    Sampling rate               : 48.0 kHz
    Frame rate                  : 31.250 FPS (1536 SPF)
    Compression mode            : Lossy
    Stream size                 : 496 MiB (7%)
    Title                       : Inglés [CinemaniaHDD]
    Language                    : English
    Service kind                : Complete Main
    Default                     : No
    Forced                      : No

    Text #1
    ID                          : 4
    Format                      : UTF-8
    Codec ID                    : S_TEXT/UTF8
    Codec ID/Info               : UTF-8 Plain Text
    Duration                    : 1 h 23 min
    Bit rate                    : 0 b/s
    Count of elements           : 25
    Stream size                 : 454 Bytes (0%)
    Title                       : Forzados [CinemaniaHDD]
    Language                    : Spanish
    Default                     : Yes
    Forced                      : Yes

    Text #2
    ID                          : 5
    Format                      : UTF-8
    Codec ID                    : S_TEXT/UTF8
    Codec ID/Info               : UTF-8 Plain Text
    Duration                    : 1 h 42 min
    Bit rate                    : 43 b/s
    Count of elements           : 1101
    Stream size                 : 32.6 KiB (0%)
    Title                       : Español latino [CinemaniaHDD]
    Language                    : Spanish
    Default                     : No
    Forced                      : No

    Text #3
    ID                          : 6
    Format                      : UTF-8
    Codec ID                    : S_TEXT/UTF8
    Codec ID/Info               : UTF-8 Plain Text
    Duration                    : 1 h 45 min
    Bit rate                    : 87 b/s
    Count of elements           : 2204
    Stream size                 : 67.6 KiB (0%)
    Title                       : Inglés [CinemaniaHDD]
    Language                    : English
    Default                     : No
    Forced                      : No

     

  • Peso: 6.92 GiB

Sinopsis

Daniel es un tímido adolescente que comienza a vender marihuana, entrando en un mundo tentador pero problemático. Sus problemas se acentúan cuando tiene una aventura con la hermana de su socio.

Ficha técnica

Video trailer de la película

Enlaces de descarga

Rip de Bluray

Descargar Hot Summer Nights (2017) AMZN WEB-DL 1080p Latino




Aportes de DPeliculasHDmega la pass es:dpeliculashdmega.org Aportes de CinemaniaHD la pass es:cinemaniahdd.com
Guardado en : Comedia , Crimen , Drama

Películas relacionadas

descargar Hot Summer Nights (2017) AMZN WEB-DL 1080p Latino 1080p 1080p gratis, Hot Summer Nights (2017) AMZN WEB-DL 1080p Latino 1080p mega 1 link, Hot Summer Nights (2017) AMZN WEB-DL 1080p Latino 1080p pelicula completa, descargar Hot Summer Nights (2017) AMZN WEB-DL 1080p Latino 1080p gratis en mega.

Hot Summer Nights (2017) AMZN WEB-DL 1080p Latino pelicula full hd, Hot Summer Nights (2017) AMZN WEB-DL 1080p Latino mega latino, Hot Summer Nights (2017) AMZN WEB-DL 1080p Latino 4k latino, Hot Summer Nights (2017) AMZN WEB-DL 1080p Latino pelicula completa, Hot Summer Nights (2017) AMZN WEB-DL 1080p Latino descargar gratis, descargar Hot Summer Nights (2017) AMZN WEB-DL 1080p Latino pelicula latino, Hot Summer Nights (2017) AMZN WEB-DL 1080p Latino 1 link mega, Hot Summer Nights (2017) AMZN WEB-DL 1080p Latino 1 link google drive, Hot Summer Nights (2017) AMZN WEB-DL 1080p Latino hd 1080p latino.
Comentarios 0