Hostiles (2018) 1080p Latino

1.065 vistas
1 estrella2 estrellas3 estrellas4 estrellas5 estrellas (3 votos, promedio: 3,67 de 5)
Cargando…

Información de Hostiles (2018) 1080p Latino

Datos de la película

  • Calidad: 1080p
  • Audio: Español Latino AC3 2.0 Capturado - Ingles AC3 5.1 BLURAY
  • Subtitulos: Español Latino SRT - Ingles SRT
  • Resolución: 1920x808p
  • Formato: MKV
  • Codec: H.264
  • Encoder: Chesse92
  • Mediainfo: Clic para Mostrar Datos Ver
  • Hostiles (2017) 1080p Latino.mkv
    Format                      : Matroska
    Format version              : Version 4 / Version 2
    File size                   : 3.81 GiB
    Duration                    : 2 h 13 min
    Overall bit rate            : 4 083 kb/s
    Movie name                  : CinemaniaHDD.Net
    Encoded date                : UTC 2018-11-09 06:09:34 / UTC 2018-11-09T03:11:37Z
    Writing application         : mkvmerge v25.0.0 ('Prog Noir') 64-bit
    Writing library             : libebml v1.3.6 + libmatroska v1.4.9 / Lavf57.7.2

    Video
    ID                          : 1
    Format                      : AVC
    Format/Info                 : Advanced Video Codec
    Format profile              : High@L4.1
    Format settings             : CABAC / 5 Ref Frames
    Format settings, CABAC      : Yes
    Format settings, RefFrames  : 5 frames
    Codec ID                    : V_MPEG4/ISO/AVC
    Duration                    : 2 h 13 min
    Bit rate                    : 3 298 kb/s
    Nominal bit rate            : 3 500 kb/s
    Width                       : 1 920 pixels
    Height                      : 804 pixels
    Display aspect ratio        : 2.40:1
    Frame rate mode             : Constant
    Frame rate                  : 23.976 (24000/1001) FPS
    Color space                 : YUV
    Chroma subsampling          : 4:2:0
    Bit depth                   : 8 bits
    Scan type                   : Progressive
    Bits/(Pixel*Frame)          : 0.089
    Stream size                 : 3.08 GiB (81%)
    Title                       : HD1080p [Bluray]
    Writing library             : x264 core 155 r2893 b00bcaf
    Encoding settings           : cabac=1 / ref=5 / deblock=1:0:0 / analyse=0x3:0x113 / me=hex / subme=8 / psy=1 / psy_rd=1.00:0.00 / mixed_ref=1 / me_range=16 / chroma_me=1 / trellis=2 / 8x8dct=1 / cqm=0 / deadzone=21,11 / fast_pskip=1 / chroma_qp_offset=-2 / threads=25 / lookahead_threads=4 / sliced_threads=0 / nr=0 / decimate=1 / interlaced=0 / bluray_compat=0 / constrained_intra=0 / bframes=3 / b_pyramid=2 / b_adapt=1 / b_bias=0 / direct=3 / weightb=1 / open_gop=0 / weightp=2 / keyint=240 / keyint_min=24 / scenecut=40 / intra_refresh=0 / rc_lookahead=50 / rc=abr / mbtree=1 / bitrate=3500 / ratetol=1.0 / qcomp=0.60 / qpmin=0 / qpmax=69 / qpstep=4 / vbv_maxrate=62500 / vbv_bufsize=78125 / nal_hrd=none / filler=0 / ip_ratio=1.40 / aq=1:1.00
    Default                     : Yes
    Forced                      : No
    Color range                 : Limited
    Color primaries             : BT.709
    Transfer characteristics    : BT.709
    Matrix coefficients         : BT.709
    Statistics Tags Issue       : mkvmerge v25.0.0 ('Prog Noir') 64-bit 2018-11-09 06:09:34 / mkvmerge v25.0.0 ('Prog Noir') 64-bit 2018-11-09 06:09:34 / UTC 2018-11-09T03:11:37Z
    FromStats_BitRate           : 3377356
    FromStats_Duration          : 02:13:41.180000000
    FromStats_FrameCount        : 192316
    FromStats_StreamSize        : 3386298212

    Audio #1
    ID                          : 2
    Format                      : AC-3
    Format/Info                 : Audio Coding 3
    Format settings, Endianness : Big
    Codec ID                    : A_AC3
    Duration                    : 2 h 13 min
    Bit rate mode               : Constant
    Bit rate                    : 256 kb/s
    Channel(s)                  : 2 channels
    Channel positions           : Front: L R
    Sampling rate               : 48.0 kHz
    Frame rate                  : 31.250 FPS (1536 SPF)
    Bit depth                   : 16 bits
    Compression mode            : Lossy
    Delay relative to video     : -5 ms
    Stream size                 : 245 MiB (6%)
    Title                       : AC3_2.0_Captura_Esp
    Language                    : Spanish
    Service kind                : Complete Main
    Default                     : Yes
    Forced                      : No
    Statistics Tags Issue       : mkvmerge v25.0.0 ('Prog Noir') 64-bit 2018-11-09 06:09:34 / mkvmerge v25.0.0 ('Prog Noir') 64-bit 2018-11-09 06:09:34 / UTC 2018-11-09T03:11:37Z
    FromStats_BitRate           : 256000
    FromStats_Duration          : 02:13:41.248000000
    FromStats_FrameCount        : 250664
    FromStats_StreamSize        : 256679936

    Audio #2
    ID                          : 3
    Format                      : AC-3
    Format/Info                 : Audio Coding 3
    Format settings, Endianness : Big
    Codec ID                    : A_AC3
    Duration                    : 2 h 13 min
    Bit rate mode               : Constant
    Bit rate                    : 448 kb/s
    Channel(s)                  : 6 channels
    Channel positions           : Front: L C R, Side: L R, LFE
    Sampling rate               : 48.0 kHz
    Frame rate                  : 31.250 FPS (1536 SPF)
    Bit depth                   : 16 bits
    Compression mode            : Lossy
    Stream size                 : 428 MiB (11%)
    Title                       : AC3_5.1_Bluray_Eng
    Language                    : English
    Service kind                : Complete Main
    Default                     : No
    Forced                      : No
    Statistics Tags Issue       : mkvmerge v25.0.0 ('Prog Noir') 64-bit 2018-11-09 06:09:34 / mkvmerge v25.0.0 ('Prog Noir') 64-bit 2018-11-09 06:09:34 / UTC 2018-11-09T03:11:37Z
    FromStats_BitRate           : 448000
    FromStats_Duration          : 02:13:41.216000000
    FromStats_FrameCount        : 250663
    FromStats_StreamSize        : 449188096

    Text #1
    ID                          : 4
    Format                      : UTF-8
    Codec ID                    : S_TEXT/UTF8
    Codec ID/Info               : UTF-8 Plain Text
    Title                       : Sub_Esp
    Language                    : Spanish
    Default                     : No
    Forced                      : No
    Statistics Tags Issue       : mkvmerge v25.0.0 ('Prog Noir') 64-bit 2018-11-09 06:09:34 / mkvmerge v25.0.0 ('Prog Noir') 64-bit 2018-11-09 06:09:34 / UTC 2018-11-09T03:11:37Z
    FromStats_BitRate           : 27
    FromStats_Duration          : 02:03:47.105000000
    FromStats_FrameCount        : 907
    FromStats_StreamSize        : 25484

    Text #2
    ID                          : 5
    Format                      : UTF-8
    Codec ID                    : S_TEXT/UTF8
    Codec ID/Info               : UTF-8 Plain Text
    Title                       : Sub_Eng
    Language                    : English
    Default                     : No
    Forced                      : No
    Statistics Tags Issue       : mkvmerge v25.0.0 ('Prog Noir') 64-bit 2018-11-09 06:09:34 / mkvmerge v25.0.0 ('Prog Noir') 64-bit 2018-11-09 06:09:34 / UTC 2018-11-09T03:11:37Z
    FromStats_BitRate           : 24
    FromStats_Duration          : 02:03:12.552000000
    FromStats_FrameCount        : 826
    FromStats_StreamSize        : 22708

    Menu
    00:00:00.000                : :00:00:00.000
    00:06:36.813                : :00:06:36.646
    00:13:03.157                : :00:13:03.032
    00:19:58.114                : :00:19:58.072
    00:24:55.911                : :00:24:55.828
    00:31:05.405                : :00:31:05.238
    00:39:50.013                : :00:39:50.013
    00:46:46.387                : :00:46:46.137
    00:53:20.030                : :00:53:20.030
    00:59:44.831                : :00:59:44.831
    01:05:40.228                : :01:05:40.186
    01:13:11.637                : :01:13:11.596
    01:19:32.810                : :01:19:32.726
    01:24:57.426                : :01:24:57.259
    01:34:01.761                : :01:34:01.636
    01:38:58.683                : :01:38:58.641
    01:44:34.935                : :01:44:34.894
    01:51:34.396                : :01:51:34.396
    02:00:55.832                : :02:00:55.832
    02:06:49.227                : :02:06:49.101

  • Peso: 3.81 GiB

Sinopsis

Hostiles (2018) 1080p Latino, Mega. Google Drive. El legendario capitán del ejército Joseph J. Blocker se compromete para acompañar a un moribundo jefe de guerra Cheyenne y a su familia de regreso a las tierras de su tribu. Para ello tendrán que emprender un peligroso viaje por las praderas montañosas de Nuevo México, dónde se encontrarán con una joven viuda cuya familia fue asesinada en las llanuras por un grupo de comanches que aún rondan por la zona. Juntos, tendrán que unir fuerzas para sobrevivir al castigador paisaje y a las hostiles tribus Comanche que se encuentran por el camino.

Ficha técnica

Video trailer de la película

Enlaces de descarga

Rip de Bluray

Descargar Hostiles (2018) 1080p Latino




Aportes de DPeliculasHDmega la pass es:dpeliculashdmega.org Aportes de CinemaniaHD la pass es:cinemaniahdd.com
Guardado en : Drama , HD 1080p , Historia , Western

Películas relacionadas

  • Titanes (2018) Temporada 01 Web-DL 1080p Subtitulado

    2018
    Titanes (2018) Temporada 01 Web-DL 1080p Subtitulado

    3.4 0h 43m 2018

    Descargar Titanes (2018) Temporada 01 Web-DL 1080p Subtitulado; Mega, Google Drive. Un equipo de jóvenes...

    Director: Greg Berlanti

    Género: Action & Adventure

    Actores: Teagan Croft

  • Arrow (2018) Temporada 07 AMZN Web-DL 1080p Latino

    2012
    Arrow (2018) Temporada 07 AMZN Web-DL 1080p Latino

    2.7 0h 42m 2012

    Descargar Arrow Temporada 07 AMZN Web-DL 1080p Latino; Mega, Google Drive. No ha habido escasez de llamadas...

    Director: Marc Guggenheim

    Género: Action & Adventure

    Actores: Stephen Amell

  • El Justiciero 2 (2018) 1080p Latino

    2018
    El Justiciero 2 (2018) 1080p Latino

    1.0 2h 0m 2018

    Descargar El Justiciero 2 (2018) 1080p Latino, Mega, Google Drive. Robert McCall (Denzel Washington)...

    Director: Donald Sparks

    Género: Acción

    Actores: Wesley Pereira

Comentarios 0