×

¿Problemas para descargar con Mozilla, EDGE? Deshabilita la opción "Abrir vinculos en una pestaña nueva" tal como lo muestra ésta imagen.

Hostiles (2017) REMUX 1080p Latino – CMHDD

188 vistas

Información de Hostiles (2017) REMUX 1080p Latino – CMHDD

Datos de la película

  • Calidad: Full 1080p
  • Audio: Español Latino AC3 2.0 WEB-DL - Ingles DTS 5.1 BLURAY
  • Subtitulos: Español Latino PGS
  • Resolución: 1920x1080p
  • Formato: MKV
  • Codec: H.264
  • Encoder: Dracarys
  • Mediainfo: Clic para Mostrar Datos Ver
  • Format                      : Matroska
    Format version              : Version 4
    File size                   : 33.9 GiB
    Duration                    : 2 h 14 min
    Overall bit rate mode       : Variable
    Overall bit rate            : 36.1 Mb/s
    Movie name                  : Hostiles (2017) REMUX 1080p Latino - CMHDD
    Encoded date                : UTC 2021-08-09 02:05:14
    Writing application         : mkvmerge v56.1.0 ('My Friend') 64-bit
    Writing library             : libebml v1.4.2 + libmatroska v1.6.4
    Cover                       : Yes
    Attachments                 : cover.jpg

    Video
    ID                          : 1
    Format                      : AVC
    Format/Info                 : Advanced Video Codec
    Format profile              : High@L4.1
    Format settings             : CABAC / 4 Ref Frames
    Format settings, CABAC      : Yes
    Format settings, Reference  : 4 frames
    Codec ID                    : V_MPEG4/ISO/AVC
    Duration                    : 2 h 14 min
    Bit rate mode               : Variable
    Bit rate                    : 32.1 Mb/s
    Maximum bit rate            : 37.0 Mb/s
    Width                       : 1 920 pixels
    Height                      : 1 080 pixels
    Display aspect ratio        : 16:9
    Frame rate mode             : Constant
    Frame rate                  : 23.976 (23976/1000) FPS
    Original frame rate         : 23.976 (24000/1001) FPS
    Color space                 : YUV
    Chroma subsampling          : 4:2:0
    Bit depth                   : 8 bits
    Scan type                   : Progressive
    Bits/(Pixel*Frame)          : 0.645
    Stream size                 : 30.1 GiB (89%)
    Default                     : Yes
    Forced                      : No

    Audio #1
    ID                          : 2
    Format                      : DTS XLL
    Format/Info                 : Digital Theater Systems
    Commercial name             : DTS-HD Master Audio
    Codec ID                    : A_DTS
    Duration                    : 2 h 14 min
    Bit rate mode               : Variable
    Bit rate                    : 3 581 kb/s
    Channel(s)                  : 6 channels
    Channel layout              : C L R Ls Rs LFE
    Sampling rate               : 48.0 kHz
    Frame rate                  : 93.750 FPS (512 SPF)
    Bit depth                   : 24 bits
    Compression mode            : Lossless
    Stream size                 : 3.36 GiB (10%)
    Language                    : English
    Default                     : No
    Forced                      : No

    Audio #2
    ID                          : 3
    Format                      : AC-3
    Format/Info                 : Audio Coding 3
    Commercial name             : Dolby Digital
    Format settings             : Dolby Surround
    Codec ID                    : A_AC3
    Duration                    : 2 h 14 min
    Bit rate mode               : Constant
    Bit rate                    : 192 kb/s
    Channel(s)                  : 2 channels
    Channel layout              : L R
    Sampling rate               : 48.0 kHz
    Frame rate                  : 31.250 FPS (1536 SPF)
    Compression mode            : Lossy
    Delay relative to video     : 23 ms
    Stream size                 : 184 MiB (1%)
    Language                    : English
    Service kind                : Complete Main
    Default                     : No
    Forced                      : No

    Audio #3
    ID                          : 4
    Format                      : AC-3
    Format/Info                 : Audio Coding 3
    Commercial name             : Dolby Digital
    Codec ID                    : A_AC3
    Duration                    : 2 h 13 min
    Bit rate mode               : Constant
    Bit rate                    : 256 kb/s
    Channel(s)                  : 2 channels
    Channel layout              : L R
    Sampling rate               : 48.0 kHz
    Frame rate                  : 31.250 FPS (1536 SPF)
    Compression mode            : Lossy
    Stream size                 : 245 MiB (1%)
    Language                    : Spanish
    Service kind                : Complete Main
    Default                     : Yes
    Forced                      : No

    Text
    ID                          : 5
    Format                      : PGS
    Muxing mode                 : zlib
    Codec ID                    : S_HDMV/PGS
    Codec ID/Info               : Picture based subtitle format used on BDs/HD-DVDs
    Duration                    : 2 h 3 min
    Bit rate                    : 18.6 kb/s
    Count of elements           : 1816
    Stream size                 : 16.5 MiB (0%)
    Language                    : Spanish
    Default                     : No
    Forced                      : No

    Menu
    00:00:00.000                : Chapter 01
    00:08:18.539                : Chapter 02
    00:20:32.064                : Chapter 03
    00:25:28.818                : Chapter 04
    00:34:48.336                : Chapter 05
    00:40:23.545                : Chapter 06
    00:51:40.597                : Chapter 07
    01:00:18.614                : Chapter 08
    01:08:17.176                : Chapter 09
    01:14:52.070                : Chapter 10
    01:25:29.248                : Chapter 11
    01:34:35.461                : Chapter 12
    01:43:05.512                : Chapter 13
    01:50:45.972                : Chapter 14
    01:54:10.677                : Chapter 15
    02:05:21.805                : Chapter 16

  • Peso: 33.9 GiB

Sinopsis

El legendario capitán del ejército Joseph J. Blocker se compromete para acompañar a un moribundo jefe de guerra Cheyenne y a su familia de regreso a las tierras de su tribu. Para ello tendrán que emprender un peligroso viaje por las praderas montañosas de Nuevo México, dónde se encontrarán con una joven viuda cuya familia fue asesinada en las llanuras por un grupo de comanches que aún rondan por la zona. Juntos, tendrán que unir fuerzas para sobrevivir al castigador paisaje y a las hostiles tribus Comanche que se encuentran por el camino.

Ficha técnica

Video trailer de la película

Enlaces de descarga

Rip de Bluray

Descargar Hostiles (2017) REMUX 1080p Latino – CMHDD


Aportes de DPeliculasHDmega la pass es:dpeliculashdmega.org Aportes de CinemaniaHD la pass es:cinemaniahdd.com
Guardado en : Drama , Historia , Western

Películas relacionadas

descargar Hostiles (2017) REMUX 1080p Latino – CMHDD Full 1080p 1080p gratis, Hostiles (2017) REMUX 1080p Latino – CMHDD Full 1080p mega 1 link, Hostiles (2017) REMUX 1080p Latino – CMHDD Full 1080p pelicula completa, descargar Hostiles (2017) REMUX 1080p Latino – CMHDD Full 1080p gratis en mega.

Hostiles (2017) REMUX 1080p Latino – CMHDD pelicula full hd, Hostiles (2017) REMUX 1080p Latino – CMHDD mega latino, Hostiles (2017) REMUX 1080p Latino – CMHDD 4k latino, Hostiles (2017) REMUX 1080p Latino – CMHDD pelicula completa, Hostiles (2017) REMUX 1080p Latino – CMHDD descargar gratis, descargar Hostiles (2017) REMUX 1080p Latino – CMHDD pelicula latino, Hostiles (2017) REMUX 1080p Latino – CMHDD 1 link mega, Hostiles (2017) REMUX 1080p Latino – CMHDD 1 link google drive, Hostiles (2017) REMUX 1080p Latino – CMHDD hd 1080p latino.