Horizonte profundo (2016) Full 1080p Latino

1.214 vistas
1 estrella2 estrellas3 estrellas4 estrellas5 estrellas (1 votos, promedio: 5,00 de 5)
Cargando…

Información de Horizonte profundo (2016) Full 1080p Latino

Datos de la película

  • Calidad: Full 1080p
  • Audio: Español Latino AC3 5.1 BLURAY - Ingles AC3 5.1 BLURAY
  • Subtitulos: Español Latino PGS - Ingles PGS
  • Resolución: 1920X1080
  • Formato: MKV
  • Codec: H.264
  • Encoder: Dpelis
  • Mediainfo: Clic para Mostrar Datos Ver
  • Format                                   : Matroska
    Format version                           : Version 4 / Version 2
    File size                                : 4.87 GiB
    Duration                                 : 1 h 47 min
    Overall bit rate                         : 6 494 kb/s
    Movie name                               : dpeliculashdmega.org
    Encoded date                             : UTC 2017-11-30 04:58:28 / UTC 2017-11-30T00:19:34Z
    Writing application                      : mkvmerge v15.0.0 ('Duel with the Devil') 64-bit
    Writing library                          : libebml v1.3.5 + libmatroska v1.4.5 / Lavf57.7.2

    Video
    ID                                       : 1
    Format                                   : AVC
    Format/Info                              : Advanced Video Codec
    Format profile                           : High@L4.1
    Format settings                          : CABAC / 4 Ref Frames
    Format settings, CABAC                   : Yes
    Format settings, RefFrames               : 4 frames
    Codec ID                                 : V_MPEG4/ISO/AVC
    Duration                                 : 1 h 47 min
    Bit rate                                 : 5 085 kb/s
    Width                                    : 1 920 pixels
    Height                                   : 1 080 pixels
    Display aspect ratio                     : 16:9
    Frame rate mode                          : Constant
    Frame rate                               : 23.976 (24000/1001) FPS
    Color space                              : YUV
    Chroma subsampling                       : 4:2:0
    Bit depth                                : 8 bits
    Scan type                                : Progressive
    Bits/(Pixel*Frame)                       : 0.102
    Stream size                              : 3.81 GiB (78%)
    Title                                    : Horizonte profundo (2016) Full 1080p Latino
    Writing library                          : x264 core 148 r2708 86b7198
    Encoding settings                        : cabac=1 / ref=4 / deblock=1:0:0 / analyse=0x3:0x133 / me=esa / subme=10 / psy=1 / psy_rd=1.00:0.00 / mixed_ref=1 / me_range=24 / chroma_me=1 / trellis=2 / 8x8dct=1 / cqm=0 / deadzone=21,11 / fast_pskip=1 / chroma_qp_offset=-2 / threads=34 / lookahead_threads=5 / sliced_threads=0 / nr=0 / decimate=1 / interlaced=0 / bluray_compat=0 / constrained_intra=0 / bframes=8 / b_pyramid=2 / b_adapt=2 / b_bias=0 / direct=3 / weightb=1 / open_gop=0 / weightp=2 / keyint=240 / keyint_min=24 / scenecut=40 / intra_refresh=0 / rc_lookahead=60 / rc=crf / mbtree=1 / crf=20.0 / qcomp=0.60 / qpmin=0 / qpmax=69 / qpstep=4 / vbv_maxrate=62500 / vbv_bufsize=78125 / crf_max=0.0 / nal_hrd=none / filler=0 / ip_ratio=1.40 / aq=1:1.00
    Language                                 : English
    Default                                  : Yes
    Forced                                   : No
    Color range                              : Limited
    Color primaries                          : BT.709
    Transfer characteristics                 : BT.709
    Matrix coefficients                      : BT.709
    Statistics Tags Issue                    : mkvmerge v15.0.0 ('Duel with the Devil') 64-bit 2017-11-30 04:58:28 / mkvmerge v15.0.0 ('Duel with the Devil') 64-bit 2017-11-30 04:58:28 / UTC 2017-11-30T00:19:34Z
    FromStats_BitRate                        : 5177873
    FromStats_Duration                       : 01:47:17.682000000
    FromStats_FrameCount                     : 154350
    FromStats_StreamSize                     : 4166688062

    Audio #1
    ID                                       : 2
    Format                                   : AC-3
    Format/Info                              : Audio Coding 3
    Format settings, Endianness              : Big
    Codec ID                                 : A_AC3
    Duration                                 : 1 h 47 min
    Bit rate mode                            : Constant
    Bit rate                                 : 640 kb/s
    Channel(s)                               : 6 channels
    Channel positions                        : Front: L C R, Side: L R, LFE
    Sampling rate                            : 48.0 kHz
    Frame rate                               : 31.250 FPS (1536 SPF)
    Bit depth                                : 16 bits
    Compression mode                         : Lossy
    Delay relative to video                  : 64 ms
    Stream size                              : 491 MiB (10%)
    Title                                    : Latino-AC3
    Language                                 : Spanish
    Service kind                             : Complete Main
    Default                                  : Yes
    Forced                                   : Yes
    Statistics Tags Issue                    : mkvmerge v15.0.0 ('Duel with the Devil') 64-bit 2017-11-30 04:58:28 / mkvmerge v15.0.0 ('Duel with the Devil') 64-bit 2017-11-30 04:58:28 / UTC 2017-11-30T00:19:34Z
    FromStats_BitRate                        : 640000
    FromStats_Duration                       : 01:47:17.664000000
    FromStats_FrameCount                     : 201177
    FromStats_StreamSize                     : 515013120

    Audio #2
    ID                                       : 3
    Format                                   : AC-3
    Format/Info                              : Audio Coding 3
    Format settings, Endianness              : Big
    Codec ID                                 : A_AC3
    Duration                                 : 1 h 47 min
    Bit rate mode                            : Constant
    Bit rate                                 : 640 kb/s
    Channel(s)                               : 6 channels
    Channel positions                        : Front: L C R, Side: L R, LFE
    Sampling rate                            : 48.0 kHz
    Frame rate                               : 31.250 FPS (1536 SPF)
    Bit depth                                : 16 bits
    Compression mode                         : Lossy
    Delay relative to video                  : 64 ms
    Stream size                              : 491 MiB (10%)
    Title                                    : Ingles-AC3
    Language                                 : English
    Service kind                             : Complete Main
    Default                                  : No
    Forced                                   : No
    Statistics Tags Issue                    : mkvmerge v15.0.0 ('Duel with the Devil') 64-bit 2017-11-30 04:58:28 / mkvmerge v15.0.0 ('Duel with the Devil') 64-bit 2017-11-30 04:58:28 / UTC 2017-11-30T00:19:34Z
    FromStats_BitRate                        : 640000
    FromStats_Duration                       : 01:47:17.664000000
    FromStats_FrameCount                     : 201177
    FromStats_StreamSize                     : 515013120

    Text #1
    ID                                       : 4
    Format                                   : PGS
    Muxing mode                              : zlib
    Codec ID                                 : S_HDMV/PGS
    Codec ID/Info                            : Picture based subtitle format used on BDs/HD-DVDs
    Language                                 : English
    Default                                  : No
    Forced                                   : No
    Statistics Tags Issue                    : mkvmerge v15.0.0 ('Duel with the Devil') 64-bit 2017-11-30 04:58:28 / mkvmerge v15.0.0 ('Duel with the Devil') 64-bit 2017-11-30 04:58:28 / UTC 2017-11-30T00:19:34Z
    FromStats_BitRate                        : 44326
    FromStats_Duration                       : 01:36:45.887000000
    FromStats_FrameCount                     : 2997
    FromStats_StreamSize                     : 32169561

    Text #2
    ID                                       : 5
    Format                                   : PGS
    Muxing mode                              : zlib
    Codec ID                                 : S_HDMV/PGS
    Codec ID/Info                            : Picture based subtitle format used on BDs/HD-DVDs
    Language                                 : Spanish
    Default                                  : No
    Forced                                   : No
    Statistics Tags Issue                    : mkvmerge v15.0.0 ('Duel with the Devil') 64-bit 2017-11-30 04:58:28 / mkvmerge v15.0.0 ('Duel with the Devil') 64-bit 2017-11-30 04:58:28 / UTC 2017-11-30T00:19:34Z
    FromStats_BitRate                        : 44312
    FromStats_Duration                       : 01:38:21.065000000
    FromStats_FrameCount                     : 3323
    FromStats_StreamSize                     : 32686658

    Menu
    00:00:00.000                             : :Chapter 1
    00:07:01.296                             : :Chapter 2
    00:12:32.710                             : :Chapter 3
    00:19:34.548                             : :Chapter 4
    00:27:17.344                             : :Chapter 5
    00:34:52.841                             : :Chapter 6
    00:44:30.042                             : :Chapter 7
    00:48:05.174                             : :Chapter 8
    00:53:47.850                             : :Chapter 9
    00:58:05.399                             : :Chapter 10
    01:05:44.858                             : :Chapter 11
    01:10:07.120                             : :Chapter 12
    01:16:03.184                             : :Chapter 13
    01:20:44.631                             : :Chapter 14
    01:27:37.919                             : :Chapter 15
    01:31:38.076                             : :Chapter 16

  • Peso: 4.87 GiB

Sinopsis

Basado en los eventos sucedidos en el Golfo de México en abril del 2010, cuando un accidente en un oleoducto causó una catástrofe que mató a 11 personas e hirió a otras 16, provocando además una de las catástrofes medioambientales más graves causadas por el hombre.

Ficha técnica

Video trailer de la película

Enlaces de descarga

Rip de Bluray

Descargar Horizonte profundo (2016) Full 1080p Latino




Aportes de DPeliculasHDmega la pass es:dpeliculashdmega.org Aportes de CinemaniaHD la pass es:cinemaniahdd.com

Películas relacionadas

  • Arrow (2018) Temporada 07 AMZN Web-DL 1080p Latino

    2012
    Arrow (2018) Temporada 07 AMZN Web-DL 1080p Latino

    2.7 0h 42m 2012

    Descargar Arrow Temporada 07 AMZN Web-DL 1080p Latino; Mega, Google Drive. No ha habido escasez de llamadas...

    Director: Marc Guggenheim

    Género: Action & Adventure

    Actores: Stephen Amell

  • El Justiciero 2 (2018) 1080p Latino

    2018
    El Justiciero 2 (2018) 1080p Latino

    1.0 2h 0m 2018

    Descargar El Justiciero 2 (2018) 1080p Latino, Mega, Google Drive. Robert McCall (Denzel Washington)...

    Director: Donald Sparks

    Género: Acción

    Actores: Wesley Pereira

  • Tiger (2018) 1080p Latino

    2018
    Tiger (2018) 1080p Latino

    1.0 1h 40m 2018

    Descargar Tiger (2018) 1080p Latino, Mega, Google Drive. Tiger se inspira en la historia real de Pardeep...

    Director: Alister Grierson

    Género: Drama

    Actores: Prem Singh

Comentarios 0