×

¿Problemas para descargar con Mozilla, EDGE? Deshabilita la opción "Abrir vinculos en una pestaña nueva" tal como lo muestra ésta imagen.

Hop: Rebeldes Sin Pascua (2011) REMUX 1080p Latino

296 vistas

Información de Hop: Rebeldes Sin Pascua (2011) REMUX 1080p Latino

Datos de la película

  • Calidad: Full 1080p
  • Audio: Se especifica abajo de la Sinopsis
  • Subtitulos: Español Latino PGS - Ingles PGS
  • Resolución: 1920x1080p
  • Formato: MKV
  • Codec: H.264
  • Encoder: CinefiloCool
  • Mediainfo: Clic para Mostrar Datos Ver
  • Hop Rebeldes Sin Pascua (2011) REMUX 1080p Latino-CMHDD.mkv
    Format                      : Matroska
    Format version              : Version 4
    File size                   : 24.3 GiB
    Duration                    : 1 h 35 min
    Overall bit rate mode       : Variable
    Overall bit rate            : 36.7 Mb/s
    Movie name                  : Hop (2011) CinemaniaHDD.Net
    Encoded date                : UTC 2021-04-07 06:06:56
    Writing application         : mkvmerge v51.0.0 ('I Wish') 64-bit
    Writing library             : libebml v1.4.0 + libmatroska v1.6.2
    Attachments                 : CINEMANIAHD.png

    Video
    ID                          : 1
    ID in the original source m : 4113 (0x1011)
    Format                      : VC-1
    Format profile              : Advanced@L3
    Codec ID                    : V_MS/VFW/FOURCC / WVC1
    Codec ID/Hint               : Microsoft
    Duration                    : 1 h 35 min
    Bit rate                    : 31.3 Mb/s
    Width                       : 1 920 pixels
    Height                      : 1 080 pixels
    Display aspect ratio        : 16:9
    Frame rate mode             : Constant
    Frame rate                  : 23.976 (24000/1001) FPS
    Color space                 : YUV
    Chroma subsampling          : 4:2:0
    Bit depth                   : 8 bits
    Scan type                   : Progressive
    Compression mode            : Lossy
    Bits/(Pixel*Frame)          : 0.630
    Stream size                 : 20.8 GiB (85%)
    Title                       : REMUX HD1080p [CinemaniaHDD]
    Default                     : Yes
    Forced                      : Yes
    Original source medium      : Blu-ray

    Audio #1
    ID                          : 2
    ID in the original source m : 4353 (0x1101)
    Format                      : DTS
    Format/Info                 : Digital Theater Systems
    Codec ID                    : A_DTS
    Duration                    : 1 h 35 min
    Bit rate mode               : Constant
    Bit rate                    : 768 kb/s
    Channel(s)                  : 6 channels
    Channel layout              : C L R Ls Rs LFE
    Sampling rate               : 48.0 kHz
    Frame rate                  : 93.750 FPS (512 SPF)
    Bit depth                   : 24 bits
    Compression mode            : Lossy
    Stream size                 : 522 MiB (2%)
    Title                       : Español Latino DTS [CinemaniaHDD]
    Language                    : Spanish
    Default                     : Yes
    Forced                      : Yes
    Original source medium      : Blu-ray

    Audio #2
    ID                          : 3
    ID in the original source m : 4352 (0x1100)
    Format                      : DTS XLL
    Format/Info                 : Digital Theater Systems
    Commercial name             : DTS-HD Master Audio
    Codec ID                    : A_DTS
    Duration                    : 1 h 35 min
    Bit rate mode               : Variable
    Bit rate                    : 3 890 kb/s
    Channel(s)                  : 6 channels
    Channel layout              : C L R Ls Rs LFE
    Sampling rate               : 48.0 kHz
    Frame rate                  : 93.750 FPS (512 SPF)
    Bit depth                   : 24 bits
    Compression mode            : Lossless
    Stream size                 : 2.58 GiB (11%)
    Title                       : Ingles [CinemaniaHDD]
    Language                    : English
    Default                     : No
    Forced                      : No
    Original source medium      : Blu-ray

    Audio #3
    ID                          : 4
    Format                      : E-AC-3
    Format/Info                 : Enhanced AC-3
    Commercial name             : Dolby Digital Plus
    Codec ID                    : A_EAC3
    Duration                    : 1 h 35 min
    Bit rate mode               : Constant
    Bit rate                    : 640 kb/s
    Channel(s)                  : 6 channels
    Channel layout              : L R C LFE Ls Rs
    Sampling rate               : 48.0 kHz
    Frame rate                  : 31.250 FPS (1536 SPF)
    Compression mode            : Lossy
    Delay relative to video     : 487 ms
    Stream size                 : 435 MiB (2%)
    Title                       : Español Latino EAC3 [CinemaniaHDD]
    Language                    : Spanish
    Service kind                : Complete Main
    Default                     : No
    Forced                      : No

    Text #1
    ID                          : 5
    ID in the original source m : 4611 (0x1203)
    Format                      : PGS
    Muxing mode                 : zlib
    Codec ID                    : S_HDMV/PGS
    Codec ID/Info               : Picture based subtitle format used on BDs/HD-DVDs
    Duration                    : 1 h 33 min
    Bit rate                    : 211 b/s
    Count of elements           : 16
    Stream size                 : 144 KiB (0%)
    Title                       : Forzados-PGS [CinemaniaHDD]
    Language                    : Spanish
    Default                     : Yes
    Forced                      : Yes
    Original source medium      : Blu-ray

    Text #2
    ID                          : 6
    ID in the original source m : 4609 (0x1201)
    Format                      : PGS
    Muxing mode                 : zlib
    Codec ID                    : S_HDMV/PGS
    Codec ID/Info               : Picture based subtitle format used on BDs/HD-DVDs
    Duration                    : 1 h 34 min
    Bit rate                    : 39.9 kb/s
    Count of elements           : 2996
    Stream size                 : 26.8 MiB (0%)
    Title                       : Español-PGS [CinemaniaHDD]
    Language                    : Spanish
    Default                     : No
    Forced                      : No
    Original source medium      : Blu-ray

    Text #3
    ID                          : 7
    Format                      : PGS
    Muxing mode                 : zlib
    Codec ID                    : S_HDMV/PGS
    Codec ID/Info               : Picture based subtitle format used on BDs/HD-DVDs
    Duration                    : 1 h 34 min
    Bit rate                    : 46.0 kb/s
    Count of elements           : 3197
    Stream size                 : 31.1 MiB (0%)
    Title                       : Ingles-PGS [CinemaniaHDD]
    Language                    : English
    Default                     : No
    Forced                      : No

    Text #4
    ID                          : 8
    Format                      : UTF-8
    Codec ID                    : S_TEXT/UTF8
    Codec ID/Info               : UTF-8 Plain Text
    Duration                    : 1 h 33 min
    Bit rate                    : 0 b/s
    Count of elements           : 9
    Stream size                 : 257 Bytes (0%)
    Title                       : Forzados-SRT [CinemaniaHDD]
    Language                    : Spanish
    Default                     : No
    Forced                      : No

    Text #5
    ID                          : 9
    Format                      : UTF-8
    Codec ID                    : S_TEXT/UTF8
    Codec ID/Info               : UTF-8 Plain Text
    Duration                    : 1 h 34 min
    Bit rate                    : 64 b/s
    Count of elements           : 1498
    Stream size                 : 44.6 KiB (0%)
    Title                       : Español-SRT [CinemaniaHDD]
    Language                    : Spanish
    Default                     : No
    Forced                      : No

    Menu
    00:00:00.000                : en:Chapter 01
    00:05:30.872                : en:Chapter 02
    00:07:43.087                : en:Chapter 03
    00:09:46.752                : en:Chapter 04
    00:15:24.381                : en:Chapter 05
    00:20:11.460                : en:Chapter 06
    00:25:54.094                : en:Chapter 07
    00:28:50.395                : en:Chapter 08
    00:32:12.764                : en:Chapter 09
    00:36:22.013                : en:Chapter 10
    00:43:18.512                : en:Chapter 11
    00:47:45.612                : en:Chapter 12
    00:52:00.909                : en:Chapter 13
    00:58:12.113                : en:Chapter 14
    01:06:03.668                : en:Chapter 15
    01:11:19.441                : en:Chapter 16
    01:17:11.752                : en:Chapter 17
    01:22:47.504                : en:Chapter 18
    01:26:55.543                : en:Chapter 19
    01:29:40.541                : en:Chapter 20

  • Peso: 24.3 GiB

Sinopsis

Descargar Hop: Rebeldes Sin Pascua (2011) REMUX 1080p Latino. HOP Un Rebelde sin Pascua cuenta la historia de Fred (James Marsden) un desempleado que accidentalmente conoce a E.B, el Conejo de Pascua. Mientras Fred lucha contra el peor huésped del mundo; E.B. Ambos aprenderán que es lo que se necesita para madurar.

Audio Español Latino DTS 5.1 + EAC3 5.1 – Ingles DTS-HD 5.1 Bluray
Creditos: Dracarys por el source BD50 Thanks!! 😀

NOTA:
Proximamente para usuarios Free, Disponible Solo para VIP!! 🙂

Ficha técnica

Video trailer de la película

Enlaces de descarga

Rip de Bluray

Descargar Hop: Rebeldes Sin Pascua (2011) REMUX 1080p Latino




Aportes de DPeliculasHDmega la pass es:dpeliculashdmega.org Aportes de CinemaniaHD la pass es:cinemaniahdd.com
Guardado en : Animación , Comedia , Familia , Remux

Películas relacionadas

descargar Hop: Rebeldes Sin Pascua (2011) REMUX 1080p Latino Full 1080p 1080p gratis, Hop: Rebeldes Sin Pascua (2011) REMUX 1080p Latino Full 1080p mega 1 link, Hop: Rebeldes Sin Pascua (2011) REMUX 1080p Latino Full 1080p pelicula completa, descargar Hop: Rebeldes Sin Pascua (2011) REMUX 1080p Latino Full 1080p gratis en mega.

Hop: Rebeldes Sin Pascua (2011) REMUX 1080p Latino pelicula full hd, Hop: Rebeldes Sin Pascua (2011) REMUX 1080p Latino mega latino, Hop: Rebeldes Sin Pascua (2011) REMUX 1080p Latino 4k latino, Hop: Rebeldes Sin Pascua (2011) REMUX 1080p Latino pelicula completa, Hop: Rebeldes Sin Pascua (2011) REMUX 1080p Latino descargar gratis, descargar Hop: Rebeldes Sin Pascua (2011) REMUX 1080p Latino pelicula latino, Hop: Rebeldes Sin Pascua (2011) REMUX 1080p Latino 1 link mega, Hop: Rebeldes Sin Pascua (2011) REMUX 1080p Latino 1 link google drive, Hop: Rebeldes Sin Pascua (2011) REMUX 1080p Latino hd 1080p latino.
Comentarios 0