×

¿Problemas para descargar con Mozilla, EDGE? Deshabilita la opción "Abrir vinculos en una pestaña nueva" tal como lo muestra ésta imagen.

Hook (1991) REMUX 4K HDR Latino – CMHDD

190 vistas

Información de Hook (1991) REMUX 4K HDR Latino – CMHDD

Datos de la película

  • Calidad: 4K HDR
  • Audio: Español Latino AC3 2.0 BLURAY - Ingles DTS 5.1 BLURAY
  • Subtitulos: Español Latino PGS
  • Resolución: 3840x2160p
  • Formato: MKV
  • Codec: H.264
  • Encoder: Dracarys
  • Mediainfo: Clic para Mostrar Datos Ver
  • Format                      : Matroska
    Format version              : Version 4
    File size                   : 59.9 GiB
    Duration                    : 2 h 21 min
    Overall bit rate mode       : Variable
    Overall bit rate            : 60.5 Mb/s
    Movie name                  : Hook (1991) REMUX 4K HDR Latino - CMHDD
    Encoded date                : UTC 2023-05-30 03:44:21
    Writing application         : mkvmerge v47.0.0 ('Black Flag') 64-bit
    Writing library             : libebml v1.3.10 + libmatroska v1.5.2

    Video
    ID                          : 1
    ID in the original source m : 4113 (0x1011)
    Format                      : HEVC
    Format/Info                 : High Efficiency Video Coding
    Format profile              : Main 10@L5.1@High
    HDR format                  : SMPTE ST 2086, HDR10 compatible
    Codec ID                    : V_MPEGH/ISO/HEVC
    Duration                    : 2 h 21 min
    Bit rate                    : 55.5 Mb/s
    Width                       : 3 840 pixels
    Height                      : 2 160 pixels
    Display aspect ratio        : 16:9
    Frame rate mode             : Constant
    Frame rate                  : 23.976 (24000/1001) FPS
    Color space                 : YUV
    Chroma subsampling          : 4:2:0 (Type 2)
    Bit depth                   : 10 bits
    Bits/(Pixel*Frame)          : 0.279
    Stream size                 : 55.0 GiB (92%)
    Language                    : English
    Default                     : No
    Forced                      : No
    Color range                 : Limited
    Color primaries             : BT.2020
    Transfer characteristics    : PQ
    Matrix coefficients         : BT.2020 non-constant
    Mastering display color pri : Display P3
    Mastering display luminance : min: 0.0050 cd/m2, max: 4000 cd/m2
    Maximum Content Light Level : 10000 cd/m2
    Maximum Frame-Average Light : 944 cd/m2
    Original source medium      : Blu-ray

    Audio #1
    ID                          : 2
    Format                      : DTS XLL
    Format/Info                 : Digital Theater Systems
    Commercial name             : DTS-HD Master Audio
    Codec ID                    : A_DTS
    Duration                    : 2 h 21 min
    Bit rate mode               : Variable
    Bit rate                    : 4 140 kb/s
    Channel(s)                  : 8 channels
    Channel layout              : C L R LFE Lb Rb Lss Rss
    Sampling rate               : 48.0 kHz
    Frame rate                  : 93.750 FPS (512 SPF)
    Bit depth                   : 24 bits
    Compression mode            : Lossless
    Stream size                 : 4.10 GiB (7%)
    Title                       : DTS-HD MA 7.1
    Language                    : English
    Default                     : No
    Forced                      : No

    Audio #2
    ID                          : 3
    ID in the original source m : 4352 (0x1100)
    Format                      : AC-3
    Format/Info                 : Audio Coding 3
    Commercial name             : Dolby Digital
    Codec ID                    : A_AC3
    Duration                    : 2 h 21 min
    Bit rate mode               : Constant
    Bit rate                    : 640 kb/s
    Channel(s)                  : 6 channels
    Channel layout              : L R C LFE Ls Rs
    Sampling rate               : 48.0 kHz
    Frame rate                  : 31.250 FPS (1536 SPF)
    Compression mode            : Lossy
    Stream size                 : 649 MiB (1%)
    Title                       : DD 5.1
    Language                    : English
    Service kind                : Complete Main
    Default                     : No
    Forced                      : No
    Original source medium      : Blu-ray

    Audio #3
    ID                          : 4
    ID in the original source m : 4364 (0x110C)
    Format                      : AC-3
    Format/Info                 : Audio Coding 3
    Commercial name             : Dolby Digital
    Format settings             : Dolby Surround
    Codec ID                    : A_AC3
    Duration                    : 2 h 21 min
    Bit rate mode               : Constant
    Bit rate                    : 192 kb/s
    Channel(s)                  : 2 channels
    Channel layout              : L R
    Sampling rate               : 48.0 kHz
    Frame rate                  : 31.250 FPS (1536 SPF)
    Compression mode            : Lossy
    Stream size                 : 195 MiB (0%)
    Title                       : DD 2.0
    Language                    : Spanish
    Service kind                : Complete Main
    Default                     : Yes
    Forced                      : No
    Original source medium      : Blu-ray

    Text #1
    ID                          : 5
    ID in the original source m : 4787 (0x12B3)
    Format                      : PGS
    Muxing mode                 : zlib
    Codec ID                    : S_HDMV/PGS
    Codec ID/Info               : Picture based subtitle format used on BDs/HD-DVDs
    Duration                    : 2 h 14 min
    Bit rate                    : 23.8 kb/s
    Frame rate                  : 0.371 FPS
    Count of elements           : 2990
    Stream size                 : 22.9 MiB (0%)
    Language                    : Polish
    Default                     : No
    Forced                      : No
    Original source medium      : Blu-ray

    Text #2
    ID                          : 6
    ID in the original source m : 4794 (0x12BA)
    Format                      : PGS
    Muxing mode                 : zlib
    Codec ID                    : S_HDMV/PGS
    Codec ID/Info               : Picture based subtitle format used on BDs/HD-DVDs
    Duration                    : 21 min 36 s
    Bit rate                    : 322 b/s
    Frame rate                  : 0.006 FPS
    Count of elements           : 8
    Stream size                 : 51.0 KiB (0%)
    Language                    : Spanish
    Default                     : No
    Forced                      : No
    Original source medium      : Blu-ray

    Text #3
    ID                          : 7
    ID in the original source m : 4795 (0x12BB)
    Format                      : PGS
    Muxing mode                 : zlib
    Codec ID                    : S_HDMV/PGS
    Codec ID/Info               : Picture based subtitle format used on BDs/HD-DVDs
    Duration                    : 1 s 877 ms
    Bit rate                    : 76.3 kb/s
    Frame rate                  : 1.066 FPS
    Count of elements           : 2
    Stream size                 : 17.5 KiB (0%)
    Language                    : Spanish
    Default                     : No
    Forced                      : No
    Original source medium      : Blu-ray

    Menu
    00:00:00.000                : en:Chapter 01
    00:08:05.943                : en:Chapter 02
    00:16:44.378                : en:Chapter 03
    00:23:37.624                : en:Chapter 04
    00:30:14.395                : en:Chapter 05
    00:35:50.356                : en:Chapter 06
    00:48:17.603                : en:Chapter 07
    00:58:14.199                : en:Chapter 08
    01:06:16.973                : en:Chapter 09
    01:11:26.282                : en:Chapter 10
    01:22:03.335                : en:Chapter 11
    01:31:45.708                : en:Chapter 12
    01:40:26.020                : en:Chapter 13
    01:47:53.300                : en:Chapter 14
    01:56:29.857                : en:Chapter 15
    02:08:10.057                : en:Chapter 16

  • Peso: 59.9 GiB

Sinopsis

Peter Pan es un prestigioso abogado y tiene una encantadora familia, pero ha perdido el contacto con algo maravilloso: su infancia. Sin embargo, cuando sus hijos son secuestrados por su antiguo enemigo, el Capitán Garfio, y llevados al País de Nunca Jamás, también él tendrá que viajar a ese reino encantado, donde, con la ayuda de Campanilla, podrá recuperar no sólo a sus hijos, sino también al niño que un día fue.

Ficha técnica

Video trailer de la película

Enlaces de descarga

Rip de Bluray

Descargar Hook (1991) REMUX 4K HDR Latino – CMHDD


Aportes de DPeliculasHDmega la pass es:dpeliculashdmega.org Aportes de CinemaniaHD la pass es:cinemaniahdd.com Aportes recientes:cinemaniahdd.net
Guardado en : Aventura , Comedia , Familia , Fantasía

Películas relacionadas

descargar Hook (1991) REMUX 4K HDR Latino – CMHDD 4K HDR 1080p gratis, Hook (1991) REMUX 4K HDR Latino – CMHDD 4K HDR mega 1 link, Hook (1991) REMUX 4K HDR Latino – CMHDD 4K HDR pelicula completa, descargar Hook (1991) REMUX 4K HDR Latino – CMHDD 4K HDR gratis en mega.

Hook (1991) REMUX 4K HDR Latino – CMHDD pelicula full hd, Hook (1991) REMUX 4K HDR Latino – CMHDD mega latino, Hook (1991) REMUX 4K HDR Latino – CMHDD 4k latino, Hook (1991) REMUX 4K HDR Latino – CMHDD pelicula completa, Hook (1991) REMUX 4K HDR Latino – CMHDD descargar gratis, descargar Hook (1991) REMUX 4K HDR Latino – CMHDD pelicula latino, Hook (1991) REMUX 4K HDR Latino – CMHDD 1 link mega, Hook (1991) REMUX 4K HDR Latino – CMHDD 1 link google drive, Hook (1991) REMUX 4K HDR Latino – CMHDD hd 1080p latino.
Comentarios 0