×

¿Problemas para descargar con Mozilla, EDGE? Deshabilita la opción "Abrir vinculos en una pestaña nueva" tal como lo muestra ésta imagen.

Honey Boy (2019) REMUX 1080p Latino

89 vistas

Información de Honey Boy (2019) REMUX 1080p Latino

Datos de la película

  • Calidad: Full 1080p
  • Audio: Español Latino AC3 2.0 WEB-DL - Ingles DTS 5.1 BLURAY
  • Subtitulos: Español Latino SRT- FORZADOS SRT
  • Resolución: 1920x1080p
  • Formato: MKV
  • Codec: H.264
  • Encoder: Melkor
  • Mediainfo: Clic para Mostrar Datos Ver
  • Honey Boy (2019) REMUX 1080p Latino.mkv
    Format                      : Matroska
    Format version              : Version 4
    File size                   : 21.1 GiB
    Duration                    : 1 h 34 min
    Overall bit rate mode       : Variable
    Overall bit rate            : 32.0 Mb/s
    Movie name                  : Honey Boy (2019) CinemaniaHDD.Net
    Encoded date                : UTC 2021-10-22 05:36:48
    Writing application         : mkvmerge v56.1.0 ('My Friend') 64-bit
    Writing library             : libebml v1.4.2 + libmatroska v1.6.4
    Attachments                 : CINEMANIAHD.png

    Video
    ID                          : 1
    Format                      : AVC
    Format/Info                 : Advanced Video Codec
    Format profile              : High@L4.1
    Format settings             : CABAC / 4 Ref Frames
    Format settings, CABAC      : Yes
    Format settings, Reference  : 4 frames
    Codec ID                    : V_MPEG4/ISO/AVC
    Duration                    : 1 h 34 min
    Bit rate mode               : Variable
    Bit rate                    : 29.8 Mb/s
    Maximum bit rate            : 33.0 Mb/s
    Width                       : 1 920 pixels
    Height                      : 1 080 pixels
    Display aspect ratio        : 16:9
    Frame rate mode             : Constant
    Frame rate                  : 23.976 (24000/1001) FPS
    Color space                 : YUV
    Chroma subsampling          : 4:2:0
    Bit depth                   : 8 bits
    Scan type                   : Progressive
    Bits/(Pixel*Frame)          : 0.600
    Stream size                 : 19.7 GiB (93%)
    Title                       : REMUX HD1080p [CinemaniaHDD]
    Language                    : English
    Default                     : Yes
    Forced                      : Yes

    Audio #1
    ID                          : 2
    Format                      : AC-3
    Format/Info                 : Audio Coding 3
    Commercial name             : Dolby Digital
    Codec ID                    : A_AC3
    Duration                    : 1 h 34 min
    Bit rate mode               : Constant
    Bit rate                    : 256 kb/s
    Channel(s)                  : 2 channels
    Channel layout              : L R
    Sampling rate               : 48.0 kHz
    Frame rate                  : 31.250 FPS (1536 SPF)
    Compression mode            : Lossy
    Stream size                 : 173 MiB (1%)
    Title                       : Español Latino [CinemaniaHDD]
    Language                    : Spanish
    Service kind                : Complete Main
    Default                     : Yes
    Forced                      : Yes

    Audio #2
    ID                          : 3
    Format                      : DTS XLL
    Format/Info                 : Digital Theater Systems
    Commercial name             : DTS-HD Master Audio
    Codec ID                    : A_DTS
    Duration                    : 1 h 34 min
    Bit rate mode               : Variable
    Bit rate                    : 1 851 kb/s
    Channel(s)                  : 6 channels
    Channel layout              : C L R Ls Rs LFE
    Sampling rate               : 48.0 kHz
    Frame rate                  : 93.750 FPS (512 SPF)
    Bit depth                   : 16 bits
    Compression mode            : Lossless
    Stream size                 : 1.22 GiB (6%)
    Title                       : Ingles [CinemaniaHDD]
    Language                    : English
    Default                     : No
    Forced                      : No

    Text #1
    ID                          : 4
    Format                      : UTF-8
    Codec ID                    : S_TEXT/UTF8
    Codec ID/Info               : UTF-8 Plain Text
    Duration                    : 16 min 16 s
    Bit rate                    : 0 b/s
    Count of elements           : 2
    Stream size                 : 10.0 Bytes (0%)
    Title                       : Forzados-SRT [CinemaniaHDD]
    Language                    : Spanish
    Default                     : Yes
    Forced                      : Yes

    Text #2
    ID                          : 5
    Format                      : UTF-8
    Codec ID                    : S_TEXT/UTF8
    Codec ID/Info               : UTF-8 Plain Text
    Duration                    : 1 h 25 min
    Bit rate                    : 47 b/s
    Count of elements           : 958
    Stream size                 : 29.7 KiB (0%)
    Title                       : Español-SRT [CinemaniaHDD]
    Language                    : Spanish
    Default                     : No
    Forced                      : No

    Text #3
    ID                          : 6
    Format                      : PGS
    Muxing mode                 : zlib
    Codec ID                    : S_HDMV/PGS
    Codec ID/Info               : Picture based subtitle format used on BDs/HD-DVDs
    Duration                    : 1 h 30 min
    Bit rate                    : 46.5 kb/s
    Count of elements           : 2304
    Stream size                 : 30.2 MiB (0%)
    Title                       : Ingles [CinemaniaHDD]
    Language                    : English
    Default                     : No
    Forced                      : No

    Menu
    00:00:00.000                : Chapter 1
    00:06:27.762                : Chapter 2
    00:10:56.239                : Chapter 3
    00:16:25.693                : Chapter 4
    00:21:08.851                : Chapter 5
    00:24:30.761                : Chapter 6
    00:29:26.098                : Chapter 7
    00:36:49.124                : Chapter 8
    00:40:11.701                : Chapter 9
    00:44:16.404                : Chapter 10
    00:50:54.260                : Chapter 11
    00:57:42.626                : Chapter 12
    01:04:38.875                : Chapter 13
    01:09:39.801                : Chapter 14
    01:15:43.497                : Chapter 15
    01:27:51.266                : Chapter 16

  • Peso: 21.1 GiB

Sinopsis

Descargar Honey Boy (2019) REMUX 1080p Latino. Otis es un niño de 12 años que descubre desde muy joven la fama de Hollywood. Su padre es un antiguo payaso de rodeo con diversos problemas, ahora sin trabajo, que decide convertirse en su guardián. Cuando Otis no está divirtiendo a un selecto público pasa el rato con él en hoteles de poca monta situados en las afueras de las ciudades a las que acude a grabar. La convivencia entre ambos es muy compleja: Otis se ve obligado a sufrir sus abusos mientras ambos intentar dar sentido a una relación que se reproduce en el tiempo a lo largo de más de una década.

Ficha técnica

  • Titulo original: Honey Boy
  • Fecha de lanzamiento: 08-11-2019 (United States of America)
  • Director: Alma Har'el
  • Género: Drama, Remux

Video trailer de la película

Enlaces de descarga

Rip de Bluray

Descargar Honey Boy (2019) REMUX 1080p Latino




Aportes de DPeliculasHDmega la pass es:dpeliculashdmega.org Aportes de CinemaniaHD la pass es:cinemaniahdd.com
Guardado en : Drama , Remux

Películas relacionadas

  • Togo (2022) NF WEB-DL 1080p Latino

    Togo (2022) NF WEB-DL 1080p Latino

    2022
    Togo (2022) NF WEB-DL 1080p Latino

    1h 35m 2022

    Descargar Togo (2022) NF WEB-DL 1080p Latino. Los narcos de poca monta están copando las calles de Montevideo...

    Director: Adrián Caetano

    Género: Crimen

    Actores: Tito Prieto

  • El Ultimo Juego (2021) WEB-DL 1080p Latino

    El Ultimo Juego (2021) WEB-DL 1080p Latino

    2021
    El Ultimo Juego (2021) WEB-DL 1080p Latino

    1h 21m 2021

    Descargar El Ultimo Juego (2021) WEB-DL 1080p Latino. 6 extraños se despiertan dentro de una habitación...

    Director: John David Moffat IV

    Género: Drama

    Actores: Yasmin Irvine

descargar Honey Boy (2019) REMUX 1080p Latino Full 1080p 1080p gratis, Honey Boy (2019) REMUX 1080p Latino Full 1080p mega 1 link, Honey Boy (2019) REMUX 1080p Latino Full 1080p pelicula completa, descargar Honey Boy (2019) REMUX 1080p Latino Full 1080p gratis en mega.

Honey Boy (2019) REMUX 1080p Latino pelicula full hd, Honey Boy (2019) REMUX 1080p Latino mega latino, Honey Boy (2019) REMUX 1080p Latino 4k latino, Honey Boy (2019) REMUX 1080p Latino pelicula completa, Honey Boy (2019) REMUX 1080p Latino descargar gratis, descargar Honey Boy (2019) REMUX 1080p Latino pelicula latino, Honey Boy (2019) REMUX 1080p Latino 1 link mega, Honey Boy (2019) REMUX 1080p Latino 1 link google drive, Honey Boy (2019) REMUX 1080p Latino hd 1080p latino.
Comentarios 0