×

¿Problemas para descargar con Mozilla, EDGE? Deshabilita la opción "Abrir vinculos en una pestaña nueva" tal como lo muestra ésta imagen.

Honey Boy (2019) PLACEBO Full HD 1080p Latino

149 vistas

Información de Honey Boy (2019) PLACEBO Full HD 1080p Latino

Datos de la película

  • Calidad: Full 1080p
  • Audio: Español Latino AC3 2.0 WEB-DL - Ingles DTS 5.1 BLURAY
  • Subtitulos: Español Latino SRT- FORZADOS SRT
  • Resolución: 1920x1080p
  • Formato: MKV
  • Codec: H.264
  • Encoder: Melkor
  • Mediainfo: Clic para Mostrar Datos Ver
  • Honey Boy (2019) PLACEBO 1080p Latino.mkv
    Format                      : Matroska
    Format version              : Version 4
    File size                   : 4.34 GiB
    Duration                    : 1 h 34 min
    Overall bit rate mode       : Variable
    Overall bit rate            : 6 572 kb/s
    Movie name                  : Honey Boy (2019) CinemaniaHDD.Net
    Encoded date                : UTC 2021-10-23 16:26:12
    Writing application         : mkvmerge v56.1.0 ('My Friend') 64-bit
    Writing library             : libebml v1.4.2 + libmatroska v1.6.4
    Attachments                 : CINEMANIAHD.png

    Video
    ID                          : 1
    Format                      : AVC
    Format/Info                 : Advanced Video Codec
    Format profile              : High@L4.1
    Format settings             : CABAC / 4 Ref Frames
    Format settings, CABAC      : Yes
    Format settings, Reference  : 4 frames
    Codec ID                    : V_MPEG4/ISO/AVC
    Duration                    : 1 h 34 min
    Bit rate                    : 4 438 kb/s
    Width                       : 1 920 pixels
    Height                      : 1 080 pixels
    Display aspect ratio        : 16:9
    Frame rate mode             : Constant
    Frame rate                  : 23.976 (24000/1001) FPS
    Color space                 : YUV
    Chroma subsampling          : 4:2:0
    Bit depth                   : 8 bits
    Scan type                   : Progressive
    Bits/(Pixel*Frame)          : 0.089
    Stream size                 : 2.93 GiB (68%)
    Title                       : Full HD1080p [CinemaniaHDD]
    Writing library             : x264 core 163 r3059 b684ebe0
    Encoding settings           : cabac=1 / ref=4 / deblock=1:0:0 / analyse=0x3:0x133 / me=tesa / subme=11 / psy=1 / psy_rd=1.00:0.00 / mixed_ref=1 / me_range=24 / chroma_me=1 / trellis=2 / 8x8dct=1 / cqm=0 / deadzone=21,11 / fast_pskip=0 / chroma_qp_offset=-2 / threads=24 / lookahead_threads=6 / sliced_threads=0 / nr=0 / decimate=1 / interlaced=0 / bluray_compat=0 / constrained_intra=0 / bframes=16 / b_pyramid=2 / b_adapt=2 / b_bias=0 / direct=3 / weightb=1 / open_gop=0 / weightp=2 / keyint=240 / keyint_min=24 / scenecut=40 / intra_refresh=0 / rc_lookahead=60 / rc=crf / mbtree=1 / crf=20.0 / qcomp=0.60 / qpmin=0 / qpmax=69 / qpstep=4 / vbv_maxrate=62500 / vbv_bufsize=78125 / crf_max=0.0 / nal_hrd=none / filler=0 / ip_ratio=1.40 / aq=1:1.00
    Default                     : Yes
    Forced                      : Yes
    Color range                 : Limited
    Color primaries             : BT.709
    Transfer characteristics    : BT.709
    Matrix coefficients         : BT.709

    Audio #1
    ID                          : 2
    Format                      : AC-3
    Format/Info                 : Audio Coding 3
    Commercial name             : Dolby Digital
    Codec ID                    : A_AC3
    Duration                    : 1 h 34 min
    Bit rate mode               : Constant
    Bit rate                    : 256 kb/s
    Channel(s)                  : 2 channels
    Channel layout              : L R
    Sampling rate               : 48.0 kHz
    Frame rate                  : 31.250 FPS (1536 SPF)
    Compression mode            : Lossy
    Stream size                 : 173 MiB (4%)
    Title                       : Español Latino [CinemaniaHDD]
    Language                    : Spanish
    Service kind                : Complete Main
    Default                     : Yes
    Forced                      : Yes

    Audio #2
    ID                          : 3
    Format                      : DTS XLL
    Format/Info                 : Digital Theater Systems
    Commercial name             : DTS-HD Master Audio
    Codec ID                    : A_DTS
    Duration                    : 1 h 34 min
    Bit rate mode               : Variable
    Bit rate                    : 1 851 kb/s
    Channel(s)                  : 6 channels
    Channel layout              : C L R Ls Rs LFE
    Sampling rate               : 48.0 kHz
    Frame rate                  : 93.750 FPS (512 SPF)
    Bit depth                   : 16 bits
    Compression mode            : Lossless
    Stream size                 : 1.22 GiB (28%)
    Title                       : Ingles [CinemaniaHDD]
    Language                    : English
    Default                     : No
    Forced                      : No

    Text #1
    ID                          : 4
    Format                      : UTF-8
    Codec ID                    : S_TEXT/UTF8
    Codec ID/Info               : UTF-8 Plain Text
    Duration                    : 16 min 16 s
    Bit rate                    : 0 b/s
    Count of elements           : 2
    Stream size                 : 10.0 Bytes (0%)
    Title                       : Forzados-SRT [CinemaniaHDD]
    Language                    : Spanish
    Default                     : Yes
    Forced                      : Yes

    Text #2
    ID                          : 5
    Format                      : UTF-8
    Codec ID                    : S_TEXT/UTF8
    Codec ID/Info               : UTF-8 Plain Text
    Duration                    : 1 h 25 min
    Bit rate                    : 47 b/s
    Count of elements           : 958
    Stream size                 : 29.7 KiB (0%)
    Title                       : Español-SRT [CinemaniaHDD]
    Language                    : Spanish
    Default                     : No
    Forced                      : No

    Text #3
    ID                          : 6
    Format                      : PGS
    Muxing mode                 : zlib
    Codec ID                    : S_HDMV/PGS
    Codec ID/Info               : Picture based subtitle format used on BDs/HD-DVDs
    Duration                    : 1 h 30 min
    Bit rate                    : 46.5 kb/s
    Count of elements           : 2304
    Stream size                 : 30.2 MiB (1%)
    Title                       : Ingles [CinemaniaHDD]
    Language                    : English
    Default                     : No
    Forced                      : No

    Menu
    00:00:00.000                : Chapter 1
    00:06:27.762                : Chapter 2
    00:10:56.239                : Chapter 3
    00:16:25.693                : Chapter 4
    00:21:08.851                : Chapter 5
    00:24:30.761                : Chapter 6
    00:29:26.098                : Chapter 7
    00:36:49.124                : Chapter 8
    00:40:11.701                : Chapter 9
    00:44:16.404                : Chapter 10
    00:50:54.260                : Chapter 11
    00:57:42.626                : Chapter 12
    01:04:38.875                : Chapter 13
    01:09:39.801                : Chapter 14
    01:15:43.497                : Chapter 15
    01:27:51.266                : Chapter 16

  • Peso: 4.34 GiB

Sinopsis

Descargar Honey Boy (2019) PLACEBO Full HD 1080p Latino. Otis es un niño de 12 años que descubre desde muy joven la fama de Hollywood. Su padre es un antiguo payaso de rodeo con diversos problemas, ahora sin trabajo, que decide convertirse en su guardián. Cuando Otis no está divirtiendo a un selecto público pasa el rato con él en hoteles de poca monta situados en las afueras de las ciudades a las que acude a grabar. La convivencia entre ambos es muy compleja: Otis se ve obligado a sufrir sus abusos mientras ambos intentar dar sentido a una relación que se reproduce en el tiempo a lo largo de más de una década.

Ficha técnica

Video trailer de la película

Enlaces de descarga

Rip de Bluray

Descargar Honey Boy (2019) PLACEBO Full HD 1080p Latino




Aportes de DPeliculasHDmega la pass es:dpeliculashdmega.org Aportes de CinemaniaHD la pass es:cinemaniahdd.com

Películas relacionadas

  • Wire Room (2022) PLACEBO Full HD 1080p Latino

    Wire Room (2022) PLACEBO Full HD 1080p Latino

    2022
    Wire Room (2022) PLACEBO Full HD 1080p Latino

    1h 37m 2022

    Descargar Wire Room (2022) PLACEBO Full HD 1080p Latino. Mientras está de servicio en la sala de cables,...

    Director: Matt Eskandari

    Género: Acción

    Actores: Texas Battle

  • Alarido (2022) PLACEBO Full HD 1080p Latino

    Alarido (2022) PLACEBO Full HD 1080p Latino

    2022
    Alarido (2022) PLACEBO Full HD 1080p Latino

    1h 29m 2022

    Descargar Alarido (2022) PLACEBO Full HD 1080p Latino. Una joven madre soltera es cautiva junto con sus...

    Director: D.J. Caruso

    Género: FULL 1080p Plateadas

    Actores: Vincent Gallo

  • After: Amor infinito (2022) AMZN WEB-DL 1080p Latino

    After: Amor infinito (2022) AMZN WEB-DL 1080p Latino

    2022
    After: Amor infinito (2022) AMZN WEB-DL 1080p Latino

    1h 35m 2022

    Descargar After: Amor infinito (2022) AMZN WEB-DL 1080p Latino. El amor de Tessa y Hardin nunca ha sido...

    Director: Castille Landon

    Género: Drama

    Actores: Velizar Nikolaev Biney

descargar Honey Boy (2019) PLACEBO Full HD 1080p Latino Full 1080p 1080p gratis, Honey Boy (2019) PLACEBO Full HD 1080p Latino Full 1080p mega 1 link, Honey Boy (2019) PLACEBO Full HD 1080p Latino Full 1080p pelicula completa, descargar Honey Boy (2019) PLACEBO Full HD 1080p Latino Full 1080p gratis en mega.

Honey Boy (2019) PLACEBO Full HD 1080p Latino pelicula full hd, Honey Boy (2019) PLACEBO Full HD 1080p Latino mega latino, Honey Boy (2019) PLACEBO Full HD 1080p Latino 4k latino, Honey Boy (2019) PLACEBO Full HD 1080p Latino pelicula completa, Honey Boy (2019) PLACEBO Full HD 1080p Latino descargar gratis, descargar Honey Boy (2019) PLACEBO Full HD 1080p Latino pelicula latino, Honey Boy (2019) PLACEBO Full HD 1080p Latino 1 link mega, Honey Boy (2019) PLACEBO Full HD 1080p Latino 1 link google drive, Honey Boy (2019) PLACEBO Full HD 1080p Latino hd 1080p latino.
Comentarios 0