×

¿Problemas para descargar con Mozilla, EDGE? Deshabilita la opción "Abrir vinculos en una pestaña nueva" tal como lo muestra ésta imagen.

Homefront (2013) REMUX 1080p Latino – CMHDD

106 vistas

Información de Homefront (2013) REMUX 1080p Latino – CMHDD

Datos de la película

  • Calidad: Full 1080p
  • Audio: Español Latino AC3 2.0 DVD - Ingles DTS 5.1 BLURAY
  • Subtitulos: Español Latino PGS
  • Resolución: 1920x1080p
  • Formato: MKV
  • Codec: H.264
  • Encoder: Dracarys
  • Mediainfo: Clic para Mostrar Datos Ver
  • Format                      : Matroska
    Format version              : Version 4
    File size                   : 25.3 GiB
    Duration                    : 1 h 40 min
    Overall bit rate mode       : Variable
    Overall bit rate            : 36.0 Mb/s
    Movie name                  : Homefront (2013) REMUX 1080p Latino - CMHDD
    Encoded date                : UTC 2021-11-05 01:06:32
    Writing application         : mkvmerge v17.0.0 ('Be Ur Friend') 64-bit
    Writing library             : libebml v1.3.5 + libmatroska v1.4.8

    Video
    ID                          : 1
    Format                      : AVC
    Format/Info                 : Advanced Video Codec
    Format profile              : High@L4.1
    Format settings             : CABAC / 4 Ref Frames
    Format settings, CABAC      : Yes
    Format settings, Reference  : 4 frames
    Codec ID                    : V_MPEG4/ISO/AVC
    Duration                    : 1 h 40 min
    Bit rate mode               : Variable
    Bit rate                    : 31.6 Mb/s
    Maximum bit rate            : 35.0 Mb/s
    Width                       : 1 920 pixels
    Height                      : 1 080 pixels
    Display aspect ratio        : 16:9
    Frame rate mode             : Constant
    Frame rate                  : 23.976 (24000/1001) FPS
    Color space                 : YUV
    Chroma subsampling          : 4:2:0
    Bit depth                   : 8 bits
    Scan type                   : Progressive
    Bits/(Pixel*Frame)          : 0.635
    Stream size                 : 22.2 GiB (88%)
    Default                     : Yes
    Forced                      : No

    Audio #1
    ID                          : 2
    Format                      : DTS XLL
    Format/Info                 : Digital Theater Systems
    Commercial name             : DTS-HD Master Audio
    Codec ID                    : A_DTS
    Duration                    : 1 h 40 min
    Bit rate mode               : Variable
    Bit rate                    : 4 039 kb/s
    Channel(s)                  : 6 channels
    Channel layout              : C L R Ls Rs LFE
    Sampling rate               : 48.0 kHz
    Frame rate                  : 93.750 FPS (512 SPF)
    Bit depth                   : 24 bits
    Compression mode            : Lossless
    Stream size                 : 2.84 GiB (11%)
    Language                    : English
    Default                     : No
    Forced                      : No

    Audio #2
    ID                          : 3
    Format                      : AC-3
    Format/Info                 : Audio Coding 3
    Commercial name             : Dolby Digital
    Codec ID                    : A_AC3
    Duration                    : 1 h 40 min
    Bit rate mode               : Constant
    Bit rate                    : 384 kb/s
    Channel(s)                  : 2 channels
    Channel layout              : L R
    Sampling rate               : 48.0 kHz
    Frame rate                  : 31.250 FPS (1536 SPF)
    Compression mode            : Lossy
    Stream size                 : 276 MiB (1%)
    Language                    : Spanish
    Service kind                : Complete Main
    Default                     : Yes
    Forced                      : No

    Text
    ID                          : 4
    Format                      : PGS
    Muxing mode                 : zlib
    Codec ID                    : S_HDMV/PGS
    Codec ID/Info               : Picture based subtitle format used on BDs/HD-DVDs
    Duration                    : 1 h 33 min
    Bit rate                    : 29.6 kb/s
    Count of elements           : 2085
    Stream size                 : 19.7 MiB (0%)
    Language                    : Spanish
    Default                     : No
    Forced                      : No

    Menu
    00:00:00.000                : en:Chapter 1
    00:04:55.461                : en:Chapter 2
    00:09:14.095                : en:Chapter 3
    00:14:55.853                : en:Chapter 4
    00:21:42.426                : en:Chapter 5
    00:25:03.001                : en:Chapter 6
    00:31:23.214                : en:Chapter 7
    00:34:04.000                : en:Chapter 8
    00:39:01.088                : en:Chapter 9
    00:45:47.995                : en:Chapter 10
    00:49:29.257                : en:Chapter 11
    00:55:16.479                : en:Chapter 12
    01:01:55.420                : en:Chapter 13
    01:08:56.173                : en:Chapter 14
    01:12:27.634                : en:Chapter 15
    01:16:00.973                : en:Chapter 16
    01:19:15.250                : en:Chapter 17
    01:24:02.620                : en:Chapter 18
    01:29:39.123                : en:Chapter 19
    01:35:16.961                : en:Chapter 20

  • Peso: 25.3 GiB

Sinopsis

Un exagente de la DEA (Agencia Antidroga) que está viudo se retira a un pequeño pueblo para empezar una nueva vida con su hija de diez años. El único problema es que ha elegido el pueblo equivocado.

Ficha técnica

Video trailer de la película

Enlaces de descarga

Rip de Bluray

Descargar Homefront (2013) REMUX 1080p Latino – CMHDD


Aportes de DPeliculasHDmega la pass es:dpeliculashdmega.org Aportes de CinemaniaHD la pass es:cinemaniahdd.com
Guardado en : Acción , Suspenso

Películas relacionadas

  • Wire Room (2022) HD 1080p Latino

    Wire Room (2022) HD 1080p Latino

    2022
    Wire Room (2022) HD 1080p Latino

    1h 37m 2022

    Descargar Wire Room (2022) HD 1080p Latino. Mientras está de servicio en la sala de cables, un agente...

    Director: Matt Eskandari

    Género: Acción

    Actores: Texas Battle

  • Wire Room (2022) PLACEBO Full HD 1080p Latino

    Wire Room (2022) PLACEBO Full HD 1080p Latino

    2022
    Wire Room (2022) PLACEBO Full HD 1080p Latino

    1h 37m 2022

    Descargar Wire Room (2022) PLACEBO Full HD 1080p Latino. Mientras está de servicio en la sala de cables,...

    Director: Matt Eskandari

    Género: Acción

    Actores: Texas Battle

  • Wire Room (2022) REMUX 1080p Latino

    Wire Room (2022) REMUX 1080p Latino

    2022
    Wire Room (2022) REMUX 1080p Latino

    1h 37m 2022

    Descargar Wire Room (2022) REMUX 1080p Latino. Mientras está de servicio en la sala de cables, un agente...

    Director: Matt Eskandari

    Género: Acción

    Actores: Texas Battle

  • Alarido (2022) HD 1080p Latino

    Alarido (2022) HD 1080p Latino

    2022
    Alarido (2022) HD 1080p Latino

    1h 29m 2022

    Descargar Alarido (2022) HD 1080p Latino. Una joven madre soltera es cautiva junto con sus dos hijos...

    Director: D.J. Caruso

    Género: HD 1080p

    Actores: Vincent Gallo

  • Alarido (2022) PLACEBO Full HD 1080p Latino

    Alarido (2022) PLACEBO Full HD 1080p Latino

    2022
    Alarido (2022) PLACEBO Full HD 1080p Latino

    1h 29m 2022

    Descargar Alarido (2022) PLACEBO Full HD 1080p Latino. Una joven madre soltera es cautiva junto con sus...

    Director: D.J. Caruso

    Género: FULL 1080p Plateadas

    Actores: Vincent Gallo

descargar Homefront (2013) REMUX 1080p Latino – CMHDD Full 1080p 1080p gratis, Homefront (2013) REMUX 1080p Latino – CMHDD Full 1080p mega 1 link, Homefront (2013) REMUX 1080p Latino – CMHDD Full 1080p pelicula completa, descargar Homefront (2013) REMUX 1080p Latino – CMHDD Full 1080p gratis en mega.

Homefront (2013) REMUX 1080p Latino – CMHDD pelicula full hd, Homefront (2013) REMUX 1080p Latino – CMHDD mega latino, Homefront (2013) REMUX 1080p Latino – CMHDD 4k latino, Homefront (2013) REMUX 1080p Latino – CMHDD pelicula completa, Homefront (2013) REMUX 1080p Latino – CMHDD descargar gratis, descargar Homefront (2013) REMUX 1080p Latino – CMHDD pelicula latino, Homefront (2013) REMUX 1080p Latino – CMHDD 1 link mega, Homefront (2013) REMUX 1080p Latino – CMHDD 1 link google drive, Homefront (2013) REMUX 1080p Latino – CMHDD hd 1080p latino.