Home no hay lugar como el hogar (2015) Full HD 1080p Latino – CMHDD

16 vistas
1 estrella2 estrellas3 estrellas4 estrellas5 estrellas (Ninguna valoración todavía)
Cargando…

Información de Home no hay lugar como el hogar (2015) Full HD 1080p Latino – CMHDD

Datos de la película

  • Calidad: Full 1080p
  • Audio: Español Latino AC3 5.1 BLURAY - Ingles DTS 5.1 BLURAY
  • Subtitulos: Español Latino SRT
  • Resolución: 1920x1080p
  • Formato: MKV
  • Codec: H.264
  • Encoder: Dracarys
  • Mediainfo: Clic para Mostrar Datos Ver
  • Format                      : Matroska
    Format version              : Version 4
    File size                   : 7.17 GiB
    Duration                    : 1 h 33 min
    Overall bit rate mode       : Variable
    Overall bit rate            : 10.9 Mb/s
    Movie name                  : Home no hay lugar como el hogar (2015) Full HD 1080p Latino - CMHDD
    Encoded date                : UTC 2020-06-16 21:46:13
    Writing application         : mkvmerge v46.0.0 ('No Deeper Escape') 64-bit
    Writing library             : libebml v1.3.10 + libmatroska v1.5.2

    Video
    ID                          : 1
    Format                      : AVC
    Format/Info                 : Advanced Video Codec
    Format profile              : High@L4.1
    Format settings             : CABAC / 4 Ref Frames
    Format settings, CABAC      : Yes
    Format settings, Reference  : 4 frames
    Codec ID                    : V_MPEG4/ISO/AVC
    Duration                    : 1 h 33 min
    Bit rate                    : 6 030 kb/s
    Width                       : 1 920 pixels
    Height                      : 1 080 pixels
    Display aspect ratio        : 16:9
    Frame rate mode             : Constant
    Frame rate                  : 23.976 (24000/1001) FPS
    Color space                 : YUV
    Chroma subsampling          : 4:2:0
    Bit depth                   : 8 bits
    Scan type                   : Progressive
    Bits/(Pixel*Frame)          : 0.121
    Stream size                 : 3.95 GiB (55%)
    Writing library             : x264 core 157 r2935 545de2f
    Encoding settings           : cabac=1 / ref=4 / deblock=1:0:0 / analyse=0x3:0x133 / me=tesa / subme=11 / psy=1 / psy_rd=1.00:0.00 / mixed_ref=1 / me_range=24 / chroma_me=1 / trellis=2 / 8x8dct=1 / cqm=0 / deadzone=21,11 / fast_pskip=0 / chroma_qp_offset=-2 / threads=24 / lookahead_threads=6 / sliced_threads=0 / nr=0 / decimate=1 / interlaced=0 / bluray_compat=0 / constrained_intra=0 / bframes=16 / b_pyramid=2 / b_adapt=2 / b_bias=0 / direct=3 / weightb=1 / open_gop=0 / weightp=2 / keyint=240 / keyint_min=24 / scenecut=40 / intra_refresh=0 / rc_lookahead=60 / rc=crf / mbtree=1 / crf=20.0 / qcomp=0.60 / qpmin=0 / qpmax=69 / qpstep=4 / vbv_maxrate=62500 / vbv_bufsize=78125 / crf_max=0.0 / nal_hrd=none / filler=0 / ip_ratio=1.40 / aq=1:1.00
    Default                     : Yes
    Forced                      : No
    Color range                 : Limited
    Color primaries             : BT.709
    Transfer characteristics    : BT.709
    Matrix coefficients         : BT.709

    Audio #1
    ID                          : 2
    Format                      : AC-3
    Format/Info                 : Audio Coding 3
    Commercial name             : Dolby Digital
    Codec ID                    : A_AC3
    Duration                    : 1 h 33 min
    Bit rate mode               : Constant
    Bit rate                    : 448 kb/s
    Channel(s)                  : 6 channels
    Channel layout              : L R C LFE Ls Rs
    Sampling rate               : 48.0 kHz
    Frame rate                  : 31.250 FPS (1536 SPF)
    Compression mode            : Lossy
    Stream size                 : 301 MiB (4%)
    Language                    : Spanish
    Service kind                : Complete Main
    Default                     : Yes
    Forced                      : No

    Audio #2
    ID                          : 3
    Format                      : DTS ES XLL
    Format/Info                 : Digital Theater Systems
    Commercial name             : DTS-HD Master Audio
    Codec ID                    : A_DTS
    Duration                    : 1 h 33 min
    Bit rate mode               : Variable
    Bit rate                    : 4 451 kb/s
    Channel(s)                  : 8 channels
    Channel layout              : C L R Ls Rs LFE Lb Rb
    Sampling rate               : 48.0 kHz
    Frame rate                  : 93.750 FPS (512 SPF)
    Bit depth                   : 24 bits
    Compression mode            : Lossless
    Stream size                 : 2.92 GiB (41%)
    Language                    : English
    Default                     : No
    Forced                      : No

    Text #1
    ID                          : 4
    Format                      : UTF-8
    Codec ID                    : S_TEXT/UTF8
    Codec ID/Info               : UTF-8 Plain Text
    Duration                    : 1 h 32 min
    Bit rate                    : 48 b/s
    Count of elements           : 1104
    Stream size                 : 32.8 KiB (0%)
    Language                    : Spanish
    Default                     : No
    Forced                      : No

    Text #2
    ID                          : 5
    Format                      : PGS
    Muxing mode                 : zlib
    Codec ID                    : S_HDMV/PGS
    Codec ID/Info               : Picture based subtitle format used on BDs/HD-DVDs
    Duration                    : 1 h 32 min
    Bit rate                    : 30.2 kb/s
    Count of elements           : 2208
    Stream size                 : 20.1 MiB (0%)
    Language                    : Spanish
    Default                     : No
    Forced                      : No

    Menu
    00:00:00.000                : :Chapter 1
    00:03:43.724                : :Chapter 2
    00:07:28.406                : :Chapter 3
    00:11:19.429                : :Chapter 4
    00:14:26.949                : :Chapter 5
    00:17:58.953                : :Chapter 6
    00:21:05.639                : :Chapter 7
    00:25:18.851                : :Chapter 8
    00:29:07.079                : :Chapter 9
    00:33:14.284                : :Chapter 10
    00:38:58.461                : :Chapter 11
    00:41:31.155                : :Chapter 12
    00:44:27.081                : :Chapter 13
    00:46:50.433                : :Chapter 14
    00:51:34.550                : :Chapter 15
    00:56:25.924                : :Chapter 16
    01:00:43.682                : :Chapter 17
    01:03:53.121                : :Chapter 18
    01:06:57.722                : :Chapter 19
    01:09:43.763                : :Chapter 20
    01:13:55.765                : :Chapter 21
    01:18:11.770                : :Chapter 22
    01:21:54.410                : :Chapter 23
    01:23:56.031                : :Chapter 24

  • Peso: 7.17 GiB

Sinopsis

Un grupo de pacíficos alienígenas se encuentran huyendo de sus enemigos, y deciden esconderse de ellos en la Tierra. Sin embargo, uno de estos humildes extraterrestres accidentalmente notifica a sus perseguidores cuál es su ubicación, y no le queda más remedio que huir junto con una chica adolescente.

Ficha técnica

Video trailer de la película

Enlaces de descarga

Rip de Bluray

Descargar Home no hay lugar como el hogar (2015) Full HD 1080p Latino – CMHDD




Aportes de DPeliculasHDmega la pass es:dpeliculashdmega.org Aportes de CinemaniaHD la pass es:cinemaniahdd.com

Películas relacionadas

  • Días De Trueno (1990) Full HD 1080p Latino

    Días De Trueno (1990) Full HD 1080p Latino

    1990
    Días De Trueno (1990) Full HD 1080p Latino

    0.0 1h 47m 1990

    Descargar Días De Trueno (1990) Full HD 1080p Latino. Cole Trickle es un joven temerario que busca en...

    Director: Tony Scott

    Género: Acción

    Actores: Tom Cruise

  • Trolls (2016) 4K UHD HDR Latino

    Trolls (2016) 4K UHD HDR Latino

    2016
    Trolls (2016) 4K UHD HDR Latino

    0.0 1h 35m 2016

    Descargar Trolls (2016) 4K UHD HDR Latino. Adorable y amable, a los trolls les encanta jugar. Pero un...

    Director: Walt Dohrn

    Género: 4K HDR

    Actores: Zooey Deschanel

  • Trolls (2016) 1080p Latino

    Trolls (2016) 1080p Latino

    2016
    Trolls (2016) 1080p Latino

    4.2 0h 0m 2016

    Descargar Trolls (2016) 1080p Latino. Adorable y amable, a los trolls les encanta jugar. Pero un día,...

    Director: Walt Dohrn

    Género: Animación

    Actores: Zooey Deschanel

  • Trolls (2016) Full HD 1080p Latino

    Trolls (2016) Full HD 1080p Latino

    2016
    Trolls (2016) Full HD 1080p Latino

    4.5 1h 35m 2016

    Descargar Trolls (2016) Full HD 1080p Latino. Adorable y amable, a los trolls les encanta jugar. Pero...

    Director: Walt Dohrn

    Género: Animación

    Actores: Zooey Deschanel

  • Trolls (2016) REMUX 1080p Latino

    Trolls (2016) REMUX 1080p Latino

    2016
    Trolls (2016) REMUX 1080p Latino

    5.0 1h 35m 2016

    Descargar Trolls (2016) REMUX 1080p Latino. Adorable y amable, a los trolls les encanta jugar. Pero un...

    Director: Walt Dohrn

    Género: Animación

    Actores: Zooey Deschanel

Comentarios 0