×

¿Problemas para descargar con Mozilla, EDGE? Deshabilita la opción "Abrir vinculos en una pestaña nueva" tal como lo muestra ésta imagen.

Home Alone 2 Lost in New York (1992) REMUX 1080p Latino – CMHDD

1.513 vistas

Información de Home Alone 2 Lost in New York (1992) REMUX 1080p Latino – CMHDD

Datos de la película

  • Calidad: Full 1080p
  • Audio: Español Latino AC3 2.0 BLURAY - Ingles DTS 5.1 BLURAY
  • Subtitulos: Español Latino SRT- FORZADOS SRT
  • Resolución: 1920x1080p
  • Formato: MKV
  • Codec: H.264
  • Encoder: Dracarys
  • Mediainfo: Clic para Mostrar Datos Ver
  • Format                      : Matroska
    Format version              : Version 4
    File size                   : 18.9 GiB
    Duration                    : 2 h 0 min
    Overall bit rate mode       : Variable
    Overall bit rate            : 22.6 Mb/s
    Movie name                  : Home Alone 2: Lost in New York (1992) REMUX 1080p Latino - CMHDD
    Encoded date                : UTC 2023-11-27 18:14:54
    Writing application         : mkvmerge v47.0.0 ('Black Flag') 64-bit
    Writing library             : libebml v1.3.10 + libmatroska v1.5.2

    Video
    ID                          : 1
    ID in the original source m : 4113 (0x1011)
    Format                      : AVC
    Format/Info                 : Advanced Video Codec
    Format profile              : High@L4.1
    Format settings             : CABAC / 4 Ref Frames
    Format settings, CABAC      : Yes
    Format settings, Reference  : 4 frames
    Codec ID                    : V_MPEG4/ISO/AVC
    Duration                    : 2 h 0 min
    Bit rate mode               : Variable
    Bit rate                    : 18.6 Mb/s
    Maximum bit rate            : 40.0 Mb/s
    Width                       : 1 920 pixels
    Height                      : 1 080 pixels
    Display aspect ratio        : 16:9
    Frame rate mode             : Constant
    Frame rate                  : 23.976 (24000/1001) FPS
    Color space                 : YUV
    Chroma subsampling          : 4:2:0
    Bit depth                   : 8 bits
    Scan type                   : Progressive
    Bits/(Pixel*Frame)          : 0.375
    Stream size                 : 15.6 GiB (83%)
    Language                    : English
    Default                     : No
    Forced                      : No
    Color range                 : Limited
    Color primaries             : BT.709
    Transfer characteristics    : BT.709
    Matrix coefficients         : BT.709
    Original source medium      : Blu-ray

    Audio #1
    ID                          : 2
    ID in the original source m : 4352 (0x1100)
    Format                      : DTS XLL
    Format/Info                 : Digital Theater Systems
    Commercial name             : DTS-HD Master Audio
    Codec ID                    : A_DTS
    Duration                    : 2 h 0 min
    Bit rate mode               : Variable
    Bit rate                    : 3 707 kb/s
    Channel(s)                  : 6 channels
    Channel layout              : C L R Ls Rs LFE
    Sampling rate               : 48.0 kHz
    Frame rate                  : 93.750 FPS (512 SPF)
    Bit depth                   : 24 bits
    Compression mode            : Lossless
    Stream size                 : 3.11 GiB (16%)
    Language                    : English
    Default                     : No
    Forced                      : No
    Original source medium      : Blu-ray

    Audio #2
    ID                          : 3
    ID in the original source m : 4355 (0x1103)
    Format                      : AC-3
    Format/Info                 : Audio Coding 3
    Commercial name             : Dolby Digital
    Codec ID                    : A_AC3
    Duration                    : 2 h 0 min
    Bit rate mode               : Constant
    Bit rate                    : 224 kb/s
    Channel(s)                  : 2 channels
    Channel layout              : L R
    Sampling rate               : 48.0 kHz
    Frame rate                  : 31.250 FPS (1536 SPF)
    Compression mode            : Lossy
    Stream size                 : 192 MiB (1%)
    Language                    : Spanish
    Service kind                : Complete Main
    Default                     : Yes
    Forced                      : No
    Original source medium      : Blu-ray

    Text #1
    ID                          : 4
    ID in the original source m : 4609 (0x1201)
    Format                      : PGS
    Muxing mode                 : zlib
    Codec ID                    : S_HDMV/PGS
    Codec ID/Info               : Picture based subtitle format used on BDs/HD-DVDs
    Duration                    : 1 h 53 min
    Bit rate                    : 29.0 kb/s
    Frame rate                  : 0.314 FPS
    Count of elements           : 2140
    Stream size                 : 23.6 MiB (0%)
    Language                    : Spanish
    Default                     : No
    Forced                      : No
    Original source medium      : Blu-ray

    Text #2
    ID                          : 5
    ID in the original source m : 4609 (0x1201)
    Format                      : PGS
    Muxing mode                 : zlib
    Codec ID                    : S_HDMV/PGS
    Codec ID/Info               : Picture based subtitle format used on BDs/HD-DVDs
    Duration                    : 1 h 11 min
    Bit rate                    : 1 226 b/s
    Frame rate                  : 0.013 FPS
    Count of elements           : 56
    Stream size                 : 639 KiB (0%)
    Language                    : Spanish
    Default                     : No
    Forced                      : No
    Original source medium      : Blu-ray

    Menu
    00:00:00.000                : en:Chapter 01
    00:02:17.846                : en:Chapter 02
    00:05:22.613                : en:Chapter 03
    00:10:25.916                : en:Chapter 04
    00:16:31.740                : en:Chapter 05
    00:22:32.434                : en:Chapter 06
    00:26:09.609                : en:Chapter 07
    00:30:49.347                : en:Chapter 08
    00:35:33.506                : en:Chapter 09
    00:40:43.941                : en:Chapter 10
    00:43:22.266                : en:Chapter 11
    00:50:10.215                : en:Chapter 12
    00:53:56.524                : en:Chapter 13
    00:56:57.622                : en:Chapter 14
    01:00:23.453                : en:Chapter 15
    01:04:19.522                : en:Chapter 16
    01:08:01.952                : en:Chapter 17
    01:15:01.663                : en:Chapter 18
    01:18:51.351                : en:Chapter 19
    01:23:02.102                : en:Chapter 20
    01:25:47.767                : en:Chapter 21
    01:28:27.885                : en:Chapter 22
    01:31:29.734                : en:Chapter 23
    01:35:45.448                : en:Chapter 24
    01:37:20.501                : en:Chapter 25
    01:38:55.220                : en:Chapter 26
    01:42:29.685                : en:Chapter 27
    01:46:56.493                : en:Chapter 28
    01:55:49.150                : en:Chapter 29

     

  • Peso: 18.9 GiB

Sinopsis

En plenas fiestas navideñas, el pequeño Kevin y su familia están a punto de coger un avión para disfrutar de unas pequeñas vacaciones, pero Kevin se equivoca y embarca en un avión que lo lleva a Nueva York, donde vuelve a encontrarse solo y desprotegido.

Ficha técnica

Video trailer de la película

Enlaces de descarga

Rip de Bluray

Descargar Home Alone 2 Lost in New York (1992) REMUX 1080p Latino – CMHDD




Aportes de DPeliculasHDmega la pass es:dpeliculashdmega.org Aportes de CinemaniaHD la pass es:cinemaniahdd.com Aportes recientes:cinemaniahdd.net
Guardado en : Aventura , Comedia , Crimen , Familia , Remux

Películas relacionadas

descargar Home Alone 2 Lost in New York (1992) REMUX 1080p Latino – CMHDD Full 1080p 1080p gratis, Home Alone 2 Lost in New York (1992) REMUX 1080p Latino – CMHDD Full 1080p mega 1 link, Home Alone 2 Lost in New York (1992) REMUX 1080p Latino – CMHDD Full 1080p pelicula completa, descargar Home Alone 2 Lost in New York (1992) REMUX 1080p Latino – CMHDD Full 1080p gratis en mega.

Home Alone 2 Lost in New York (1992) REMUX 1080p Latino – CMHDD pelicula full hd, Home Alone 2 Lost in New York (1992) REMUX 1080p Latino – CMHDD mega latino, Home Alone 2 Lost in New York (1992) REMUX 1080p Latino – CMHDD 4k latino, Home Alone 2 Lost in New York (1992) REMUX 1080p Latino – CMHDD pelicula completa, Home Alone 2 Lost in New York (1992) REMUX 1080p Latino – CMHDD descargar gratis, descargar Home Alone 2 Lost in New York (1992) REMUX 1080p Latino – CMHDD pelicula latino, Home Alone 2 Lost in New York (1992) REMUX 1080p Latino – CMHDD 1 link mega, Home Alone 2 Lost in New York (1992) REMUX 1080p Latino – CMHDD 1 link google drive, Home Alone 2 Lost in New York (1992) REMUX 1080p Latino – CMHDD hd 1080p latino.
Comentarios 0