×

¿Problemas para descargar con Mozilla, EDGE? Deshabilita la opción "Abrir vinculos en una pestaña nueva" tal como lo muestra ésta imagen.

Home Alone (1990) REMUX 1080p Latino – CMHDD

1.739 vistas

Información de Home Alone (1990) REMUX 1080p Latino – CMHDD

Datos de la película

  • Calidad: Full 1080p
  • Audio: Español Latino DTS 5.1 BLURAY - Ingles DTS 5.1 BLURAY
  • Subtitulos: Español Latino PGS
  • Resolución: 1920x1080p
  • Formato: MKV
  • Codec: H.264
  • Encoder: Dracarys
  • Mediainfo: Clic para Mostrar Datos Ver
  • ormat                      : Matroska
    Format version              : Version 4
    File size                   : 27.2 GiB
    Duration                    : 1 h 42 min
    Overall bit rate mode       : Variable
    Overall bit rate            : 37.8 Mb/s
    Movie name                  : Home Alone (1990) REMUX 1080p Latino - CMHDD
    Encoded date                : UTC 2023-11-27 17:41:20
    Writing application         : mkvmerge v47.0.0 ('Black Flag') 64-bit
    Writing library             : libebml v1.3.10 + libmatroska v1.5.2

    Video
    ID                          : 1
    ID in the original source m : 4113 (0x1011)
    Format                      : AVC
    Format/Info                 : Advanced Video Codec
    Format profile              : High@L4.1
    Format settings             : CABAC / 4 Ref Frames
    Format settings, CABAC      : Yes
    Format settings, Reference  : 4 frames
    Codec ID                    : V_MPEG4/ISO/AVC
    Duration                    : 1 h 42 min
    Bit rate mode               : Variable
    Bit rate                    : 33.0 Mb/s
    Maximum bit rate            : 35.5 Mb/s
    Width                       : 1 920 pixels
    Height                      : 1 080 pixels
    Display aspect ratio        : 16:9
    Frame rate mode             : Constant
    Frame rate                  : 23.976 (24000/1001) FPS
    Color space                 : YUV
    Chroma subsampling          : 4:2:0
    Bit depth                   : 8 bits
    Scan type                   : Progressive
    Bits/(Pixel*Frame)          : 0.664
    Stream size                 : 23.7 GiB (87%)
    Language                    : English
    Default                     : No
    Forced                      : No
    Original source medium      : Blu-ray

    Audio #1
    ID                          : 2
    ID in the original source m : 4352 (0x1100)
    Format                      : DTS XLL
    Format/Info                 : Digital Theater Systems
    Commercial name             : DTS-HD Master Audio
    Codec ID                    : A_DTS
    Duration                    : 1 h 42 min
    Bit rate mode               : Variable
    Bit rate                    : 4 021 kb/s
    Channel(s)                  : 6 channels
    Channel layout              : C L R Ls Rs LFE
    Sampling rate               : 48.0 kHz
    Frame rate                  : 93.750 FPS (512 SPF)
    Bit depth                   : 24 bits
    Compression mode            : Lossless
    Stream size                 : 2.89 GiB (11%)
    Language                    : English
    Default                     : No
    Forced                      : No
    Original source medium      : Blu-ray

    Audio #2
    ID                          : 3
    ID in the original source m : 4354 (0x1102)
    Format                      : DTS
    Format/Info                 : Digital Theater Systems
    Codec ID                    : A_DTS
    Duration                    : 1 h 42 min
    Bit rate mode               : Constant
    Bit rate                    : 768 kb/s
    Channel(s)                  : 6 channels
    Channel layout              : C L R Ls Rs LFE
    Sampling rate               : 48.0 kHz
    Frame rate                  : 93.750 FPS (512 SPF)
    Bit depth                   : 24 bits
    Compression mode            : Lossy
    Stream size                 : 565 MiB (2%)
    Language                    : Spanish
    Default                     : Yes
    Forced                      : No
    Original source medium      : Blu-ray

    Text #1
    ID                          : 4
    ID in the original source m : 4609 (0x1201)
    Format                      : PGS
    Muxing mode                 : zlib
    Codec ID                    : S_HDMV/PGS
    Codec ID/Info               : Picture based subtitle format used on BDs/HD-DVDs
    Duration                    : 1 h 37 min
    Bit rate                    : 22.8 kb/s
    Frame rate                  : 0.344 FPS
    Count of elements           : 2022
    Stream size                 : 15.9 MiB (0%)
    Language                    : Spanish
    Default                     : No
    Forced                      : No
    Original source medium      : Blu-ray

    Text #2
    ID                          : 5
    ID in the original source m : 4609 (0x1201)
    Format                      : PGS
    Muxing mode                 : zlib
    Codec ID                    : S_HDMV/PGS
    Codec ID/Info               : Picture based subtitle format used on BDs/HD-DVDs
    Duration                    : 1 h 7 min
    Bit rate                    : 241 b/s
    Frame rate                  : 0.004 FPS
    Count of elements           : 18
    Stream size                 : 119 KiB (0%)
    Language                    : Spanish
    Default                     : No
    Forced                      : No
    Original source medium      : Blu-ray

    Menu
    00:00:00.000                : en:Chapter 01
    00:03:47.060                : en:Chapter 02
    00:05:46.679                : en:Chapter 03
    00:08:49.278                : en:Chapter 04
    00:11:28.729                : en:Chapter 05
    00:13:43.239                : en:Chapter 06
    00:19:27.457                : en:Chapter 07
    00:25:08.173                : en:Chapter 08
    00:31:16.040                : en:Chapter 09
    00:35:56.654                : en:Chapter 10
    00:41:09.550                : en:Chapter 11
    00:51:22.662                : en:Chapter 12
    00:57:38.580                : en:Chapter 13
    01:03:27.637                : en:Chapter 14
    01:06:33.656                : en:Chapter 15
    01:13:43.836                : en:Chapter 16
    01:15:13.217                : en:Chapter 17
    01:19:27.053                : en:Chapter 18
    01:22:51.341                : en:Chapter 19
    01:26:00.071                : en:Chapter 20
    01:28:45.069                : en:Chapter 21
    01:33:32.231                : en:Chapter 22
    01:37:58.289                : en:Chapter 23
    01:39:06.065                : en:Chapter 24

     

  • Peso: 27.2 GiB

Sinopsis

Kevin McAllister es un niño de ocho años, miembro de una familia numerosa, que accidentalmente se queda abandonado en su casa cuando toda la familia se marcha a pasar las vacaciones a Francia. Kevin aprende a valerse por sí mismo e incluso a protegerse de Harry y Marv, dos bribones que se proponen asaltar todas las casas cerradas de su vecindario. Cuando su madre Kate lo hecha en falta, realiza un pintoresco viaje de vuelta contra reloj a Chicago para recuperar a su hijo.

Ficha técnica

Video trailer de la película

Enlaces de descarga

Rip de Bluray

Descargar Home Alone (1990) REMUX 1080p Latino – CMHDD




Aportes de DPeliculasHDmega la pass es:dpeliculashdmega.org Aportes de CinemaniaHD la pass es:cinemaniahdd.com Aportes recientes:cinemaniahdd.net
Guardado en : Comedia , Familia , Remux

Películas relacionadas

descargar Home Alone (1990) REMUX 1080p Latino – CMHDD Full 1080p 1080p gratis, Home Alone (1990) REMUX 1080p Latino – CMHDD Full 1080p mega 1 link, Home Alone (1990) REMUX 1080p Latino – CMHDD Full 1080p pelicula completa, descargar Home Alone (1990) REMUX 1080p Latino – CMHDD Full 1080p gratis en mega.

Home Alone (1990) REMUX 1080p Latino – CMHDD pelicula full hd, Home Alone (1990) REMUX 1080p Latino – CMHDD mega latino, Home Alone (1990) REMUX 1080p Latino – CMHDD 4k latino, Home Alone (1990) REMUX 1080p Latino – CMHDD pelicula completa, Home Alone (1990) REMUX 1080p Latino – CMHDD descargar gratis, descargar Home Alone (1990) REMUX 1080p Latino – CMHDD pelicula latino, Home Alone (1990) REMUX 1080p Latino – CMHDD 1 link mega, Home Alone (1990) REMUX 1080p Latino – CMHDD 1 link google drive, Home Alone (1990) REMUX 1080p Latino – CMHDD hd 1080p latino.
Comentarios 0