Hombres de honor (2000) Full 1080p Latino

580 vistas
1 estrella2 estrellas3 estrellas4 estrellas5 estrellas (1 votos, promedio: 5,00 de 5)
Cargando…

Información de Hombres de honor (2000) Full 1080p Latino

Datos de la película

  • Calidad: Full 1080p
  • Audio: Español Latino AC3 5.1 BLURAY - Ingles DTS 5.1 BLURAY
  • Subtitulos: Español Latino PGS - Ingles PGS
  • Resolución: 1920x1080p
  • Formato: MKV
  • Codec: H.264
  • Encoder: Dracarys
  • Mediainfo: Clic para Mostrar Datos Ver
  • Format                      : Matroska
    Format version              : Version 4
    File size                   : 6.46 GiB
    Duration                    : 2 h 8 min
    Overall bit rate            : 7 183 kb/s
    Movie name                  : CinemaniaHDD.net
    Encoded date                : UTC 2019-01-08 19:12:57
    Writing application         : mkvmerge v29.0.0 ('Like It Or Not') 64-bit
    Writing library             : libebml v1.3.6 + libmatroska v1.4.9 / Lavf58.20.100

    Video
    ID                          : 1
    Format                      : AVC
    Format/Info                 : Advanced Video Codec
    Format profile              : [email protected]
    Format settings             : CABAC / 4 Ref Frames
    Format settings, CABAC      : Yes
    Format settings, ReFrames   : 4 frames
    Codec ID                    : V_MPEG4/ISO/AVC
    Duration                    : 2 h 8 min
    Bit rate                    : 5 181 kb/s
    Width                       : 1 920 pixels
    Height                      : 1 080 pixels
    Display aspect ratio        : 16:9
    Frame rate mode             : Constant
    Frame rate                  : 23.976 (24000/1001) FPS
    Color space                 : YUV
    Chroma subsampling          : 4:2:0
    Bit depth                   : 8 bits
    Scan type                   : Progressive
    Bits/(Pixel*Frame)          : 0.104
    Stream size                 : 4.66 GiB (72%)
    Writing library             : x264 core 157 r2935 545de2f
    Encoding settings           : cabac=1 / ref=4 / deblock=1:0:0 / analyse=0x1:0x131 / me=esa / subme=10 / psy=1 / psy_rd=1.00:0.00 / mixed_ref=1 / me_range=24 / chroma_me=1 / trellis=2 / 8x8dct=0 / cqm=0 / deadzone=21,11 / fast_pskip=1 / chroma_qp_offset=-2 / threads=34 / lookahead_threads=5 / sliced_threads=0 / nr=0 / decimate=1 / interlaced=0 / bluray_compat=0 / constrained_intra=0 / bframes=8 / b_pyramid=2 / b_adapt=2 / b_bias=0 / direct=3 / weightb=1 / open_gop=0 / weightp=2 / keyint=240 / keyint_min=24 / scenecut=40 / intra_refresh=0 / rc_lookahead=60 / rc=crf / mbtree=1 / crf=20.0 / qcomp=0.60 / qpmin=0 / qpmax=69 / qpstep=4 / vbv_maxrate=20000 / vbv_bufsize=25000 / crf_max=0.0 / nal_hrd=none / filler=0 / ip_ratio=1.40 / aq=1:1.00
    Language                    : English
    Default                     : Yes
    Forced                      : No
    Color range                 : Limited
    Color primaries             : BT.709
    Transfer characteristics    : BT.709
    Matrix coefficients         : BT.709

    Audio #1
    ID                          : 2
    Format                      : AC-3
    Format/Info                 : Audio Coding 3
    Commercial name             : Dolby Digital
    Codec ID                    : A_AC3
    Duration                    : 2 h 8 min
    Bit rate mode               : Constant
    Bit rate                    : 448 kb/s
    Channel(s)                  : 6 channels
    Channel layout              : L R C LFE Ls Rs
    Sampling rate               : 48.0 kHz
    Frame rate                  : 31.250 FPS (1536 SPF)
    Bit depth                   : 16 bits
    Compression mode            : Lossy
    Stream size                 : 413 MiB (6%)
    Language                    : Spanish
    Service kind                : Complete Main
    Default                     : Yes
    Forced                      : No

    Audio #2
    ID                          : 3
    Format                      : DTS
    Format/Info                 : Digital Theater Systems
    Codec ID                    : A_DTS
    Duration                    : 2 h 8 min
    Bit rate mode               : Constant
    Bit rate                    : 1 509 kb/s
    Channel(s)                  : 6 channels
    Channel layout              : C L R Ls Rs LFE
    Sampling rate               : 48.0 kHz
    Frame rate                  : 93.750 FPS (512 SPF)
    Bit depth                   : 24 bits
    Compression mode            : Lossy
    Stream size                 : 1.36 GiB (21%)
    Language                    : English
    Default                     : No
    Forced                      : No

    Text #1
    ID                          : 4
    Format                      : PGS
    Muxing mode                 : zlib
    Codec ID                    : S_HDMV/PGS
    Codec ID/Info               : Picture based subtitle format used on BDs/HD-DVDs
    Duration                    : 2 h 7 min
    Bit rate                    : 53.5 kb/s
    Count of elements           : 2631
    Stream size                 : 48.8 MiB (1%)
    Language                    : English
    Default                     : No
    Forced                      : No

    Text #2
    ID                          : 5
    Format                      : PGS
    Muxing mode                 : zlib
    Codec ID                    : S_HDMV/PGS
    Codec ID/Info               : Picture based subtitle format used on BDs/HD-DVDs
    Duration                    : 2 h 1 min
    Bit rate                    : 44.5 kb/s
    Count of elements           : 2389
    Stream size                 : 38.6 MiB (1%)
    Language                    : Spanish
    Default                     : No
    Forced                      : No

    Text #3
    ID                          : 6
    Format                      : PGS
    Muxing mode                 : zlib
    Codec ID                    : S_HDMV/PGS
    Codec ID/Info               : Picture based subtitle format used on BDs/HD-DVDs
    Duration                    : 1 h 41 min
    Bit rate                    : 145 b/s
    Count of elements           : 12
    Stream size                 : 109 KiB (0%)
    Title                       : Forzados
    Language                    : Spanish
    Default                     : Yes
    Forced                      : Yes

    Menu
    00:00:00.000                : :Chapter 1
    00:07:31.534                : :Chapter 2
    00:14:51.599                : :Chapter 3
    00:21:40.299                : :Chapter 4
    00:27:09.670                : :Chapter 5
    00:36:03.286                : :Chapter 6
    00:42:32.550                : :Chapter 7
    00:49:09.572                : :Chapter 8
    00:54:16.462                : :Chapter 9
    01:04:24.944                : :Chapter 10
    01:10:44.365                : :Chapter 11
    01:19:32.017                : :Chapter 12
    01:25:00.721                : :Chapter 13
    01:31:57.679                : :Chapter 14
    01:41:48.311                : :Chapter 15
    01:48:11.235                : :Chapter 16
    01:55:17.744                : :Chapter 17
    02:02:24.337                : :Chapter 18

     

  • Peso: 6.46 GiB

Sinopsis

La historia de Carl Brasher, un hombre que combatió el racismo y se convirtió en el primer oficial afroamericano de la armada americana. La acción se desarrolla durante más de 30 años, periodo en el que destaca su relación con Billy Sunday , un oficial rebelde de alta graduación y experto buceador que fue degradado por permitir la graduación de Brasher

Ficha técnica

Video trailer de la película

Enlaces de descarga

Rip de Bluray

Descargar Hombres de honor (2000) Full 1080p Latino




Aportes de DPeliculasHDmega la pass es:dpeliculashdmega.org Aportes de CinemaniaHD la pass es:cinemaniahdd.com
Guardado en : Drama , FULL 1080p Plateadas

Películas relacionadas

  • Escuadrón suicida (2016) Extended Full 1080p Latino

    2016
    Escuadrón suicida (2016) Extended Full 1080p Latino

    5.0 2 h 14 min 2016

    Descargar Escuadrón suicida (2016) Extended 1080p Latino, Mega, Google Drive, Torrent. Mientras el gobierno...

    Director: Shane B. Scott

    Género: Acción

    Actores: William Hainsworth

  • Boy Erased (2018) HD 1080p Latino

    2018
    Boy Erased (2018) HD 1080p Latino

    0.0 1h 54m 2018

    Descargar Boy Erased (2018) HD 1080p Latino, Mega, Google Drive, Torrent. La historia se centra en el...

    Director: Joel Edgerton

    Género: Drama

    Actores: Xavier Dolan

  • Indivisible (2018) HD Español Latino

    2018
    Indivisible (2018) HD Español Latino

    0.0 2h 0m 2018

    'Indivisible' narra la extraordinaria historia real del capellán del ejército Darren Turner y su esposa...

    Director: David G. Evans

    Género: Bélica

    Actores: Tia Mowry

Comentarios 0