×

¿Problemas para descargar con Mozilla, EDGE? Deshabilita la opción "Abrir vinculos en una pestaña nueva" tal como lo muestra ésta imagen.

Hombre Lobo Por La Noche (2022) D+ WEB-DL 1080p Latino

75 vistas

Información de Hombre Lobo Por La Noche (2022) D+ WEB-DL 1080p Latino

Datos de la película

  • Calidad: WEBDL
  • Audio: Se especifica abajo de la Sinopsis
  • Subtitulos: Español Latino SRT- FORZADOS SRT
  • Resolución: 1920x1080p
  • Formato: MKV
  • Codec: H.264
  • Encoder: Melkor
  • Mediainfo: Clic para Mostrar Datos Ver
  • Hombre Lobo Por La Noche  (2022) D+ WebDL 1080p Latino.mkv
    Format                      : Matroska
    Format version              : Version 4
    File size                   : 2.91 GiB
    Duration                    : 52 min 37 s
    Overall bit rate mode       : Variable
    Overall bit rate            : 7 924 kb/s
    Movie name                  : Werewolf By Night (2022) CinemaniaHDD.Net
    Encoded date                : UTC 2022-10-09 18:55:50
    Writing application         : mkvmerge v56.1.0 ('My Friend') 64-bit
    Writing library             : libebml v1.4.2 + libmatroska v1.6.4
    Attachments                 : CINEMANIAHD.png

    Video
    ID                          : 1
    Format                      : AVC
    Format/Info                 : Advanced Video Codec
    Format profile              : High@L4
    Format settings             : CABAC / 4 Ref Frames
    Format settings, CABAC      : Yes
    Format settings, Reference  : 4 frames
    Codec ID                    : V_MPEG4/ISO/AVC
    Duration                    : 52 min 37 s
    Bit rate mode               : Variable
    Bit rate                    : 6 449 kb/s
    Maximum bit rate            : 12.7 Mb/s
    Width                       : 1 920 pixels
    Height                      : 1 080 pixels
    Display aspect ratio        : 16:9
    Frame rate mode             : Constant
    Frame rate                  : 24.000 FPS
    Color space                 : YUV
    Chroma subsampling          : 4:2:0
    Bit depth                   : 8 bits
    Scan type                   : Progressive
    Bits/(Pixel*Frame)          : 0.130
    Stream size                 : 2.37 GiB (81%)
    Title                       : Web HD1080p [CinemaniaHDD]
    Language                    : English
    Default                     : Yes
    Forced                      : Yes
    Color range                 : Limited
    Color primaries             : BT.709
    Transfer characteristics    : BT.709
    Matrix coefficients         : BT.709

    Audio #1
    ID                          : 2
    Format                      : AC-3
    Format/Info                 : Audio Coding 3
    Commercial name             : Dolby Digital
    Codec ID                    : A_AC3
    Duration                    : 52 min 37 s
    Bit rate mode               : Constant
    Bit rate                    : 448 kb/s
    Channel(s)                  : 6 channels
    Channel layout              : L R C LFE Ls Rs
    Sampling rate               : 48.0 kHz
    Frame rate                  : 31.250 FPS (1536 SPF)
    Compression mode            : Lossy
    Stream size                 : 169 MiB (6%)
    Title                       : Español Latino AC3 [CinemaniaHDD]
    Language                    : Spanish
    Service kind                : Complete Main
    Default                     : Yes
    Forced                      : Yes

    Audio #2
    ID                          : 3
    Format                      : E-AC-3
    Format/Info                 : Enhanced AC-3
    Commercial name             : Dolby Digital Plus
    Codec ID                    : A_EAC3
    Duration                    : 52 min 37 s
    Bit rate mode               : Constant
    Bit rate                    : 256 kb/s
    Channel(s)                  : 6 channels
    Channel layout              : L R C LFE Ls Rs
    Sampling rate               : 48.0 kHz
    Frame rate                  : 31.250 FPS (1536 SPF)
    Compression mode            : Lossy
    Stream size                 : 96.4 MiB (3%)
    Title                       : Español Latino EAC3 [CinemaniaHDD]
    Language                    : Spanish
    Service kind                : Complete Main
    Default                     : No
    Forced                      : No

    Audio #3
    ID                          : 4
    Format                      : E-AC-3 JOC
    Format/Info                 : Enhanced AC-3 with Joint Object Coding
    Commercial name             : Dolby Digital Plus with Dolby Atmos
    Codec ID                    : A_EAC3
    Duration                    : 52 min 37 s
    Bit rate mode               : Constant
    Bit rate                    : 768 kb/s
    Channel(s)                  : 6 channels
    Channel layout              : L R C LFE Ls Rs
    Sampling rate               : 48.0 kHz
    Frame rate                  : 31.250 FPS (1536 SPF)
    Compression mode            : Lossy
    Stream size                 : 289 MiB (10%)
    Title                       : Ingles [CinemaniaHDD]
    Language                    : English
    Service kind                : Complete Main
    Default                     : No
    Forced                      : No
    Complexity index            : 16
    Number of dynamic objects   : 15
    Bed channel count           : 1 channel
    Bed channel configuration   : LFE

    Text #1
    ID                          : 5
    Format                      : UTF-8
    Codec ID                    : S_TEXT/UTF8
    Codec ID/Info               : UTF-8 Plain Text
    Duration                    : 53 s 375 ms
    Bit rate                    : 13 b/s
    Count of elements           : 3
    Stream size                 : 93.0 Bytes (0%)
    Title                       : Forzados-SRT [CinemaniaHDD]
    Language                    : Spanish
    Default                     : Yes
    Forced                      : Yes

    Text #2
    ID                          : 6
    Format                      : UTF-8
    Codec ID                    : S_TEXT/UTF8
    Codec ID/Info               : UTF-8 Plain Text
    Duration                    : 52 min 23 s
    Bit rate                    : 29 b/s
    Count of elements           : 338
    Stream size                 : 11.4 KiB (0%)
    Title                       : Español-SRT [CinemaniaHDD]
    Language                    : Spanish
    Default                     : No
    Forced                      : No

    Text #3
    ID                          : 7
    Format                      : UTF-8
    Codec ID                    : S_TEXT/UTF8
    Codec ID/Info               : UTF-8 Plain Text
    Duration                    : 47 min 41 s
    Bit rate                    : 37 b/s
    Count of elements           : 465
    Stream size                 : 13.1 KiB (0%)
    Title                       : Ingles-SRT [CinemaniaHDD]
    Language                    : English
    Default                     : No
    Forced                      : No

  • Peso: 2.91 GiB

Sinopsis

Descargar Hombre Lobo Por La Noche (2022) D+ WEB-DL 1080p Latino. En una noche oscura y sombría, un grupo secreto de matamonstruos surge de las sombras y se reúne en el siniestro templo de los Bloodstone tras la muerte de su líder. Tras una extraña y macabra ceremonia en su memoria, los participantes se ven arrastrados a una misteriosa y mortal competición por una poderosa reliquia, una cacería que acabará enfrentándolos a un peligroso monstruo.

Español Latino EAC3 & AC3 5.1 D+ – Ingles EAC3 JOC 5.1 D+

Ficha técnica

Video trailer de la película

Enlaces de descarga

Rip de Bluray

Descargar Hombre Lobo Por La Noche (2022) D+ WEB-DL 1080p Latino




Aportes de DPeliculasHDmega la pass es:dpeliculashdmega.org Aportes de CinemaniaHD la pass es:cinemaniahdd.com
Guardado en : Acción , Fantasía , Misterio , Terror

Películas relacionadas

descargar Hombre Lobo Por La Noche (2022) D+ WEB-DL 1080p Latino WEBDL 1080p gratis, Hombre Lobo Por La Noche (2022) D+ WEB-DL 1080p Latino WEBDL mega 1 link, Hombre Lobo Por La Noche (2022) D+ WEB-DL 1080p Latino WEBDL pelicula completa, descargar Hombre Lobo Por La Noche (2022) D+ WEB-DL 1080p Latino WEBDL gratis en mega.

Hombre Lobo Por La Noche (2022) D+ WEB-DL 1080p Latino pelicula full hd, Hombre Lobo Por La Noche (2022) D+ WEB-DL 1080p Latino mega latino, Hombre Lobo Por La Noche (2022) D+ WEB-DL 1080p Latino 4k latino, Hombre Lobo Por La Noche (2022) D+ WEB-DL 1080p Latino pelicula completa, Hombre Lobo Por La Noche (2022) D+ WEB-DL 1080p Latino descargar gratis, descargar Hombre Lobo Por La Noche (2022) D+ WEB-DL 1080p Latino pelicula latino, Hombre Lobo Por La Noche (2022) D+ WEB-DL 1080p Latino 1 link mega, Hombre Lobo Por La Noche (2022) D+ WEB-DL 1080p Latino 1 link google drive, Hombre Lobo Por La Noche (2022) D+ WEB-DL 1080p Latino hd 1080p latino.
Comentarios 0