×

¿Problemas para descargar con Mozilla, EDGE? Deshabilita la opción "Abrir vinculos en una pestaña nueva" tal como lo muestra ésta imagen.

Hollow in the Land (2017) WEB-DL 1080p SUP – CMHDD

273 vistas

Información de Hollow in the Land (2017) WEB-DL 1080p SUP – CMHDD

Datos de la película

  • Calidad: WEBDL
  • Audio: Ingles AC3 5.1 iTunes
  • Subtitulos: Español Latino SRT
  • Resolución: 1920x792p
  • Formato: MKV
  • Codec: H.264
  • Encoder: Dracarys
  • Mediainfo: Clic para Mostrar Datos Ver
  • Format                      : Matroska
    Format version              : Version 4
    File size                   : 3.47 GiB
    Duration                    : 1 h 39 min
    Overall bit rate            : 5 002 kb/s
    Movie name                  : Hollow in the Land (2017) WEB-DL 1080p SUP - CMHDD
    Encoded date                : UTC 2021-12-22 18:42:12
    Writing application         : mkvmerge v17.0.0 ('Be Ur Friend') 64-bit
    Writing library             : libebml v1.3.5 + libmatroska v1.4.8

    Video
    ID                          : 1
    Format                      : AVC
    Format/Info                 : Advanced Video Codec
    Format profile              : High@L4
    Format settings             : CABAC / 5 Ref Frames
    Format settings, CABAC      : Yes
    Format settings, Reference  : 5 frames
    Codec ID                    : V_MPEG4/ISO/AVC
    Duration                    : 1 h 39 min
    Bit rate                    : 4 616 kb/s
    Width                       : 1 920 pixels
    Height                      : 792 pixels
    Display aspect ratio        : 2.40:1
    Frame rate mode             : Constant
    Frame rate                  : 23.976 (23976/1000) FPS
    Color space                 : YUV
    Chroma subsampling          : 4:2:0
    Bit depth                   : 8 bits
    Scan type                   : Progressive
    Bits/(Pixel*Frame)          : 0.127
    Stream size                 : 3.20 GiB (92%)
    Language                    : English
    Default                     : Yes
    Forced                      : No
    Color range                 : Limited
    Color primaries             : BT.709
    Transfer characteristics    : BT.709
    Matrix coefficients         : BT.709

    Audio
    ID                          : 2
    Format                      : AC-3
    Format/Info                 : Audio Coding 3
    Commercial name             : Dolby Digital
    Codec ID                    : A_AC3
    Duration                    : 1 h 39 min
    Bit rate mode               : Constant
    Bit rate                    : 384 kb/s
    Channel(s)                  : 6 channels
    Channel layout              : L R C LFE Ls Rs
    Sampling rate               : 48.0 kHz
    Frame rate                  : 31.250 FPS (1536 SPF)
    Compression mode            : Lossy
    Delay relative to video     : -42 ms
    Stream size                 : 273 MiB (8%)
    Language                    : English
    Service kind                : Complete Main
    Default                     : Yes
    Forced                      : No

    Text
    ID                          : 3
    Format                      : UTF-8
    Codec ID                    : S_TEXT/UTF8
    Codec ID/Info               : UTF-8 Plain Text
    Duration                    : 1 h 33 min
    Bit rate                    : 45 b/s
    Count of elements           : 1170
    Stream size                 : 30.9 KiB (0%)
    Language                    : Spanish
    Default                     : Yes
    Forced                      : No

    Menu
    00:00:00.000                : en:01
    00:06:01.000                : en:02
    00:12:48.000                : en:03
    00:19:10.000                : en:04
    00:26:47.000                : en:05
    00:31:36.000                : en:06
    00:38:45.000                : en:07
    00:43:55.000                : en:08
    00:50:28.000                : en:09
    00:56:57.000                : en:10
    01:02:38.000                : en:11
    01:09:00.000                : en:12
    01:16:06.000                : en:13
    01:23:18.000                : en:14
    01:28:53.000                : en:15
    01:34:09.000                : en:16

  • Peso: 3.47 GiB

Sinopsis

Mientras Keith Miller sigue entre rejas por asesinato, su familia paga el precio de tener un nombre manchado. Un año después del crimen de Keith, se encuentra un cadáver. El hijo de Keith, Brandon, desaparece y se convierte en el primer sospechoso. Su hermana Alison lo buscará para limpiar su nombre antes de que la policía lo atrape.

Ficha técnica

Video trailer de la película

Enlaces de descarga

Rip de Bluray

Descargar Hollow in the Land (2017) WEB-DL 1080p SUP – CMHDD




Aportes de DPeliculasHDmega la pass es:dpeliculashdmega.org Aportes de CinemaniaHD la pass es:cinemaniahdd.com
Guardado en : Drama , Misterio , Suspenso

Películas relacionadas

  • Mar de sangre (2022) WEB-DL 1080p Latino

    Mar de sangre (2022) WEB-DL 1080p Latino

    2022
    Mar de sangre (2022) WEB-DL 1080p Latino

    1h 27m 2022

    Descargar Mar de sangre (2022) WEB-DL 1080p Latino. Un grupo de amigos que disfrutan de un fin de semana...

    Director: James Nunn

    Género: Acción

    Actores: Thomas Michael Flynn

  • Noche sin paz (2022) PLACEBO Full HD 1080p Latino

    Noche sin paz (2022) PLACEBO Full HD 1080p Latino

    2022
    Noche sin paz (2022) PLACEBO Full HD 1080p Latino

    1h 41m 2022

    Descargar Noche sin paz (2022) PLACEBO Full HD 1080p Latino. Cuando un equipo de mercenarios irrumpe...

    Director: Tyshana Hobson

    Género: Acción

    Actores: Yoon Cha-Lee

  • Noche sin paz (2022) HD 1080p Latino

    Noche sin paz (2022) HD 1080p Latino

    2022
    Noche sin paz (2022) HD 1080p Latino

    1h 41m 2022

    Descargar Noche sin paz (2022) HD 1080p Latino. Cuando un equipo de mercenarios irrumpe en Nochebuena...

    Director: Tyshana Hobson

    Género: Acción

    Actores: Yoon Cha-Lee

descargar Hollow in the Land (2017) WEB-DL 1080p SUP – CMHDD WEBDL 1080p gratis, Hollow in the Land (2017) WEB-DL 1080p SUP – CMHDD WEBDL mega 1 link, Hollow in the Land (2017) WEB-DL 1080p SUP – CMHDD WEBDL pelicula completa, descargar Hollow in the Land (2017) WEB-DL 1080p SUP – CMHDD WEBDL gratis en mega.

Hollow in the Land (2017) WEB-DL 1080p SUP – CMHDD pelicula full hd, Hollow in the Land (2017) WEB-DL 1080p SUP – CMHDD mega latino, Hollow in the Land (2017) WEB-DL 1080p SUP – CMHDD 4k latino, Hollow in the Land (2017) WEB-DL 1080p SUP – CMHDD pelicula completa, Hollow in the Land (2017) WEB-DL 1080p SUP – CMHDD descargar gratis, descargar Hollow in the Land (2017) WEB-DL 1080p SUP – CMHDD pelicula latino, Hollow in the Land (2017) WEB-DL 1080p SUP – CMHDD 1 link mega, Hollow in the Land (2017) WEB-DL 1080p SUP – CMHDD 1 link google drive, Hollow in the Land (2017) WEB-DL 1080p SUP – CMHDD hd 1080p latino.
Comentarios 0