×

¿Problemas para descargar con Mozilla, EDGE? Deshabilita la opción "Abrir vinculos en una pestaña nueva" tal como lo muestra ésta imagen.

Hocus Pocus: Abracadabra (1993) REMUX 1080p Latino

1.104 vistas

Información de Hocus Pocus: Abracadabra (1993) REMUX 1080p Latino

Datos de la película

  • Calidad: Full 1080p
  • Audio: Se especifica abajo de la Sinopsis
  • Subtitulos: Español Latino PGS - Ingles PGS
  • Resolución: 1920x1080p
  • Formato: MKV
  • Codec: H.264
  • Encoder: CinefiloCool | CinemaniaHD
  • Mediainfo: Clic para Mostrar Datos Ver
  • Abracadabra (1993) REMUX 1080p Latino-CMHDD.mkv
    Format                      : Matroska
    Format version              : Version 4
    File size                   : 23.6 GiB
    Duration                    : 1 h 36 min
    Overall bit rate mode       : Variable
    Overall bit rate            : 35.1 Mb/s
    Movie name                  : Hocus Pocus (1993) CinemaniaHDD.Net
    Encoded date                : UTC 2022-10-04 20:56:05
    Writing application         : mkvmerge v56.1.0 ('My Friend') 64-bit
    Writing library             : libebml v1.4.2 + libmatroska v1.6.4
    Attachments                 : CINEMANIAHD.png

    Video
    ID                          : 1
    Format                      : AVC
    Format/Info                 : Advanced Video Codec
    Format profile              : High@L4.1
    Format settings             : CABAC / 4 Ref Frames
    Format settings, CABAC      : Yes
    Format settings, Reference  : 4 frames
    Codec ID                    : V_MPEG4/ISO/AVC
    Duration                    : 1 h 36 min
    Bit rate mode               : Variable
    Bit rate                    : 29.5 Mb/s
    Maximum bit rate            : 36.0 Mb/s
    Width                       : 1 920 pixels
    Height                      : 1 080 pixels
    Display aspect ratio        : 16:9
    Frame rate mode             : Constant
    Frame rate                  : 23.976 (24000/1001) FPS
    Standard                    : NTSC
    Color space                 : YUV
    Chroma subsampling          : 4:2:0
    Bit depth                   : 8 bits
    Scan type                   : Progressive
    Bits/(Pixel*Frame)          : 0.593
    Stream size                 : 19.8 GiB (84%)
    Title                       : REMUX HD1080p [CinemaniaHDD]
    Default                     : Yes
    Forced                      : Yes
    Color range                 : Limited
    Color primaries             : BT.709
    Transfer characteristics    : BT.709
    Matrix coefficients         : BT.709

    Audio #1
    ID                          : 2
    Format                      : AC-3
    Format/Info                 : Audio Coding 3
    Commercial name             : Dolby Digital
    Codec ID                    : A_AC3
    Duration                    : 1 h 36 min
    Bit rate mode               : Constant
    Bit rate                    : 256 kb/s
    Channel(s)                  : 2 channels
    Channel layout              : L R
    Sampling rate               : 48.0 kHz
    Frame rate                  : 31.250 FPS (1536 SPF)
    Compression mode            : Lossy
    Stream size                 : 176 MiB (1%)
    Title                       : Español Latino Dub ORG [CinemaniaHDD]
    Language                    : Spanish
    Service kind                : Complete Main
    Default                     : No
    Forced                      : No

    Audio #2
    ID                          : 3
    Format                      : AC-3
    Format/Info                 : Audio Coding 3
    Commercial name             : Dolby Digital
    Codec ID                    : A_AC3
    Duration                    : 1 h 36 min
    Bit rate mode               : Constant
    Bit rate                    : 640 kb/s
    Channel(s)                  : 6 channels
    Channel layout              : L R C LFE Ls Rs
    Sampling rate               : 48.0 kHz
    Frame rate                  : 31.250 FPS (1536 SPF)
    Compression mode            : Lossy
    Stream size                 : 441 MiB (2%)
    Title                       : Español Latino ReDub [CinemaniaHDD]
    Language                    : Spanish
    Service kind                : Complete Main
    Default                     : Yes
    Forced                      : Yes

    Audio #3
    ID                          : 4
    Format                      : DTS XLL
    Format/Info                 : Digital Theater Systems
    Commercial name             : DTS-HD Master Audio
    Codec ID                    : A_DTS
    Duration                    : 1 h 36 min
    Bit rate mode               : Variable
    Bit rate                    : 4 747 kb/s
    Channel(s)                  : 6 channels
    Channel layout              : C L R Ls Rs LFE
    Sampling rate               : 48.0 kHz
    Frame rate                  : 93.750 FPS (512 SPF)
    Bit depth                   : 24 bits
    Compression mode            : Lossless
    Stream size                 : 3.19 GiB (14%)
    Title                       : Ingles [CinemaniaHDD]
    Language                    : English
    Default                     : No
    Forced                      : No

    Text #1
    ID                          : 5
    Format                      : PGS
    Muxing mode                 : zlib
    Codec ID                    : S_HDMV/PGS
    Codec ID/Info               : Picture based subtitle format used on BDs/HD-DVDs
    Duration                    : 1 h 31 min
    Bit rate                    : 28.3 kb/s
    Count of elements           : 2244
    Stream size                 : 18.5 MiB (0%)
    Title                       : Español-PGS [CinemaniaHDD]
    Language                    : Spanish
    Default                     : No
    Forced                      : No

    Text #2
    ID                          : 6
    Format                      : PGS
    Muxing mode                 : zlib
    Codec ID                    : S_HDMV/PGS
    Codec ID/Info               : Picture based subtitle format used on BDs/HD-DVDs
    Duration                    : 1 h 33 min
    Bit rate                    : 37.6 kb/s
    Count of elements           : 2756
    Stream size                 : 25.0 MiB (0%)
    Title                       : Ingles-PGS [CinemaniaHDD]
    Language                    : English
    Default                     : No
    Forced                      : No

    Text #3
    ID                          : 7
    Format                      : UTF-8
    Codec ID                    : S_TEXT/UTF8
    Codec ID/Info               : UTF-8 Plain Text
    Duration                    : 49 min 19 s
    Bit rate                    : 0 b/s
    Count of elements           : 4
    Stream size                 : 101 Bytes (0%)
    Title                       : Forzados-SRT [CinemaniaHDD]
    Language                    : Spanish
    Default                     : Yes
    Forced                      : Yes

    Text #4
    ID                          : 8
    Format                      : UTF-8
    Codec ID                    : S_TEXT/UTF8
    Codec ID/Info               : UTF-8 Plain Text
    Duration                    : 1 h 31 min
    Bit rate                    : 45 b/s
    Count of elements           : 1122
    Stream size                 : 30.7 KiB (0%)
    Title                       : Español-SRT [CinemaniaHDD]
    Language                    : Spanish
    Default                     : No
    Forced                      : No

    Menu
    00:00:00.000                : Chapter01
    00:08:40.937                : Chapter02
    00:14:01.465                : Chapter03
    00:20:20.010                : Chapter04
    00:26:46.479                : Chapter05
    00:32:11.596                : Chapter06
    00:36:44.076                : Chapter07
    00:43:59.595                : Chapter08
    00:48:04.298                : Chapter09
    00:54:18.630                : Chapter10
    01:01:23.346                : Chapter11
    01:06:03.167                : Chapter12
    01:08:22.723                : Chapter13
    01:14:39.850                : Chapter14
    01:21:30.343                : Chapter15
    01:29:10.553                : Chapter16
    01:36:07.970                : Chapter17

  • Peso: 23.6 GiB

Sinopsis

Descargar Hocus Pocus: Abracadabra (1993) REMUX 1080p Latino. Tres brujas del siglo XII son invocadas durante la noche de Halloween en la ciudad de Salem, Massachusetts, de manera accidental por unos niños. Desterradas hace 300 años por sus prácticas de brujería, este trío prometió volver algún día para sembrar el caos. Ahora aprovecharán la ocasión para cumplir su promesa. Una comedia realizada por la factoría Disney con vistas a su exhibición en la fiesta de Halloween.

Audio Español Latino AC3 2.0 Dub ORG – AC3 5.1 ReDub – Ingles DTS-HD 5.1 Bluray
RESUBIDO!!!

Ficha técnica

Video trailer de la película

Enlaces de descarga

Rip de Bluray

Descargar Hocus Pocus: Abracadabra (1993) REMUX 1080p Latino




Aportes de DPeliculasHDmega la pass es:dpeliculashdmega.org Aportes de CinemaniaHD la pass es:cinemaniahdd.com Aportes recientes:cinemaniahdd.net
Guardado en : Comedia , Familia , Fantasía , Remux , Terror

Películas relacionadas

  • Naturaleza Humana (2022) REMUX 1080p Latino

    Naturaleza Humana (2022) REMUX 1080p Latino

    2022
    Naturaleza Humana (2022) REMUX 1080p Latino

    1h 31m 2022

    Descargar Naturaleza Humana (2022) REMUX 1080p Latino. Una historia sobre la mayoría de edad contada...

    Director: Louie Gibson

    Género: Drama

    Actores: Tim Heidecker

  • Pobres criaturas (2023) WEB-DL 4K UHD HDR Latino

    Pobres criaturas (2023) WEB-DL 4K UHD HDR Latino

    2023
    Pobres criaturas (2023) WEB-DL 4K UHD HDR Latino

    2h 21m 2023

    Descargar Pobres criaturas (2023) WEB-DL 4K UHD HDR Latino. Bella Baxter es una joven revivida por el...

    Director: Yorgos Lanthimos

    Género: 4K HDR

    Actores: Zen Joshua Poisson

  • Pobres criaturas (2023) WEB-DL 1080p Latino

    Pobres criaturas (2023) WEB-DL 1080p Latino

    2023
    Pobres criaturas (2023) WEB-DL 1080p Latino

    2h 21m 2023

    Descargar Pobres criaturas (2023) WEB-DL 1080p Latino. Bella Baxter es una joven revivida por el brillante...

    Director: Yorgos Lanthimos

    Género: Ciencia ficción

    Actores: Zen Joshua Poisson

  • Wonka (2023) Full HD 1080p Latino-CMHDD

    Wonka (2023) Full HD 1080p Latino-CMHDD

    2023
    Wonka (2023) Full HD 1080p Latino-CMHDD

    1h 57m 2023

    Descargar Wonka (2023) Full HD 1080p Latino-CMHDD. Basada en el personaje que protagoniza "Charlie y...

    Director: Zoe Morgan

    Género: Comedia

    Actores: Tracy Ifeachor

  • Wonka (2023) 1080p Latino-CMHDD

    Wonka (2023) 1080p Latino-CMHDD

    2023
    Wonka (2023) 1080p Latino-CMHDD

    1h 57m 2023

    Descargar Wonka (2023) 1080p Latino-CMHDD. Basada en el personaje que protagoniza "Charlie y la fábrica...

    Director: Zoe Morgan

    Género: Comedia

    Actores: Tracy Ifeachor

descargar Hocus Pocus: Abracadabra (1993) REMUX 1080p Latino Full 1080p 1080p gratis, Hocus Pocus: Abracadabra (1993) REMUX 1080p Latino Full 1080p mega 1 link, Hocus Pocus: Abracadabra (1993) REMUX 1080p Latino Full 1080p pelicula completa, descargar Hocus Pocus: Abracadabra (1993) REMUX 1080p Latino Full 1080p gratis en mega.

Hocus Pocus: Abracadabra (1993) REMUX 1080p Latino pelicula full hd, Hocus Pocus: Abracadabra (1993) REMUX 1080p Latino mega latino, Hocus Pocus: Abracadabra (1993) REMUX 1080p Latino 4k latino, Hocus Pocus: Abracadabra (1993) REMUX 1080p Latino pelicula completa, Hocus Pocus: Abracadabra (1993) REMUX 1080p Latino descargar gratis, descargar Hocus Pocus: Abracadabra (1993) REMUX 1080p Latino pelicula latino, Hocus Pocus: Abracadabra (1993) REMUX 1080p Latino 1 link mega, Hocus Pocus: Abracadabra (1993) REMUX 1080p Latino 1 link google drive, Hocus Pocus: Abracadabra (1993) REMUX 1080p Latino hd 1080p latino.
Comentarios 0