×

¿Problemas para descargar con Mozilla, EDGE? Deshabilita la opción "Abrir vinculos en una pestaña nueva" tal como lo muestra ésta imagen.

Hocus Pocus: Abracadabra (1993) 1080p Latino

1.109 vistas

Información de Hocus Pocus: Abracadabra (1993) 1080p Latino

Datos de la película

  • Calidad: 1080p
  • Audio: Se especifica abajo de la Sinopsis
  • Subtitulos: Español Latino SRT - Ingles SRT
  • Resolución: 1920x1040p
  • Formato: MKV
  • Codec: H.264
  • Encoder: CinefiloCool | CinemaniaHD
  • Mediainfo: Clic para Mostrar Datos Ver
  • Abracadabra (1993) 1080p Latino-CMHDD.mkv
    Format                      : Matroska
    Format version              : Version 4
    File size                   : 3.26 GiB
    Duration                    : 1 h 36 min
    Overall bit rate            : 4 840 kb/s
    Movie name                  : Hocus Pocus (1993) CinemaniaHDD.Net
    Encoded date                : UTC 2022-10-04 21:05:27
    Writing application         : mkvmerge v56.1.0 ('My Friend') 64-bit
    Writing library             : libebml v1.4.2 + libmatroska v1.6.4
    Attachments                 : CINEMANIAHD.png

    Video
    ID                          : 1
    Format                      : AVC
    Format/Info                 : Advanced Video Codec
    Format profile              : High@L4.1
    Format settings             : CABAC / 4 Ref Frames
    Format settings, CABAC      : Yes
    Format settings, Reference  : 4 frames
    Codec ID                    : V_MPEG4/ISO/AVC
    Duration                    : 1 h 36 min
    Bit rate                    : 3 500 kb/s
    Width                       : 1 920 pixels
    Height                      : 1 040 pixels
    Display aspect ratio        : 1.85:1
    Frame rate mode             : Constant
    Frame rate                  : 23.976 (24000/1001) FPS
    Color space                 : YUV
    Chroma subsampling          : 4:2:0
    Bit depth                   : 8 bits
    Scan type                   : Progressive
    Bits/(Pixel*Frame)          : 0.073
    Stream size                 : 2.35 GiB (72%)
    Title                       : HD1080p [CinemaniaHDD]
    Writing library             : x264 core 157 r2935 545de2f
    Encoding settings           : cabac=1 / ref=4 / deblock=1:-2:-2 / analyse=0x3:0x133 / me=umh / subme=9 / psy=1 / psy_rd=1.00:0.25 / mixed_ref=1 / me_range=16 / chroma_me=1 / trellis=2 / 8x8dct=1 / cqm=0 / deadzone=6,6 / fast_pskip=1 / chroma_qp_offset=-4 / threads=32 / lookahead_threads=2 / sliced_threads=0 / nr=0 / decimate=0 / interlaced=0 / bluray_compat=0 / constrained_intra=0 / bframes=3 / b_pyramid=2 / b_adapt=2 / b_bias=0 / direct=3 / weightb=1 / open_gop=0 / weightp=2 / keyint=240 / keyint_min=24 / scenecut=40 / intra_refresh=0 / rc_lookahead=60 / rc=2pass / mbtree=1 / bitrate=3500 / ratetol=1.0 / qcomp=0.80 / qpmin=0 / qpmax=69 / qpstep=4 / cplxblur=20.0 / qblur=0.5 / vbv_maxrate=62500 / vbv_bufsize=78125 / nal_hrd=none / filler=0 / ip_ratio=1.10 / aq=1:0.50
    Default                     : Yes
    Forced                      : Yes
    Color range                 : Limited
    Color primaries             : BT.709
    Transfer characteristics    : BT.709
    Matrix coefficients         : BT.709

    Audio #1
    ID                          : 2
    Format                      : AC-3
    Format/Info                 : Audio Coding 3
    Commercial name             : Dolby Digital
    Codec ID                    : A_AC3
    Duration                    : 1 h 36 min
    Bit rate mode               : Constant
    Bit rate                    : 256 kb/s
    Channel(s)                  : 2 channels
    Channel layout              : L R
    Sampling rate               : 48.0 kHz
    Frame rate                  : 31.250 FPS (1536 SPF)
    Compression mode            : Lossy
    Delay relative to video     : -5 ms
    Stream size                 : 176 MiB (5%)
    Title                       : Español Latino Dub ORG [CinemaniaHDD]
    Language                    : Spanish
    Service kind                : Complete Main
    Default                     : No
    Forced                      : No

    Audio #2
    ID                          : 3
    Format                      : AC-3
    Format/Info                 : Audio Coding 3
    Commercial name             : Dolby Digital
    Codec ID                    : A_AC3
    Duration                    : 1 h 36 min
    Bit rate mode               : Constant
    Bit rate                    : 640 kb/s
    Channel(s)                  : 6 channels
    Channel layout              : L R C LFE Ls Rs
    Sampling rate               : 48.0 kHz
    Frame rate                  : 31.250 FPS (1536 SPF)
    Compression mode            : Lossy
    Delay relative to video     : -5 ms
    Stream size                 : 441 MiB (13%)
    Title                       : Español Latino ReDub [CinemaniaHDD]
    Language                    : Spanish
    Service kind                : Complete Main
    Default                     : Yes
    Forced                      : Yes

    Audio #3
    ID                          : 4
    Format                      : AC-3
    Format/Info                 : Audio Coding 3
    Commercial name             : Dolby Digital
    Codec ID                    : A_AC3
    Duration                    : 1 h 36 min
    Bit rate mode               : Constant
    Bit rate                    : 448 kb/s
    Channel(s)                  : 6 channels
    Channel layout              : L R C LFE Ls Rs
    Sampling rate               : 48.0 kHz
    Frame rate                  : 31.250 FPS (1536 SPF)
    Compression mode            : Lossy
    Delay relative to video     : -5 ms
    Stream size                 : 309 MiB (9%)
    Title                       : Ingles [CinemaniaHDD]
    Language                    : English
    Service kind                : Complete Main
    Default                     : No
    Forced                      : No

    Text #1
    ID                          : 5
    Format                      : UTF-8
    Codec ID                    : S_TEXT/UTF8
    Codec ID/Info               : UTF-8 Plain Text
    Duration                    : 49 min 19 s
    Bit rate                    : 0 b/s
    Count of elements           : 4
    Stream size                 : 101 Bytes (0%)
    Title                       : Forzados-SRT [CinemaniaHDD]
    Language                    : Spanish
    Default                     : Yes
    Forced                      : Yes

    Text #2
    ID                          : 6
    Format                      : UTF-8
    Codec ID                    : S_TEXT/UTF8
    Codec ID/Info               : UTF-8 Plain Text
    Duration                    : 1 h 31 min
    Bit rate                    : 45 b/s
    Count of elements           : 1122
    Stream size                 : 30.7 KiB (0%)
    Title                       : Español-SRT [CinemaniaHDD]
    Language                    : Spanish
    Default                     : No
    Forced                      : No

    Text #3
    ID                          : 7
    Format                      : UTF-8
    Codec ID                    : S_TEXT/UTF8
    Codec ID/Info               : UTF-8 Plain Text
    Duration                    : 1 h 32 min
    Bit rate                    : 57 b/s
    Count of elements           : 1284
    Stream size                 : 38.8 KiB (0%)
    Title                       : Ingles-SRT [CinemaniaHDD]
    Language                    : English
    Default                     : No
    Forced                      : No

    Menu
    00:00:00.000                : Chapter01
    00:08:40.937                : Chapter02
    00:14:01.465                : Chapter03
    00:20:20.010                : Chapter04
    00:26:46.479                : Chapter05
    00:32:11.596                : Chapter06
    00:36:44.076                : Chapter07
    00:43:59.595                : Chapter08
    00:48:04.298                : Chapter09
    00:54:18.630                : Chapter10
    01:01:23.346                : Chapter11
    01:06:03.167                : Chapter12
    01:08:22.723                : Chapter13
    01:14:39.850                : Chapter14
    01:21:30.343                : Chapter15
    01:29:10.553                : Chapter16
    01:36:07.970                : Chapter17

  • Peso: 3.26 GiB

Sinopsis

Descargar Hocus Pocus: Abracadabra (1993) 1080p Latino. Tres brujas del siglo XII son invocadas durante la noche de Halloween en la ciudad de Salem, Massachusetts, de manera accidental por unos niños. Desterradas hace 300 años por sus prácticas de brujería, este trío prometió volver algún día para sembrar el caos. Ahora aprovecharán la ocasión para cumplir su promesa. Una comedia realizada por la factoría Disney con vistas a su exhibición en la fiesta de Halloween.

Audio Español Latino AC3 2.0 Dub ORG – AC3 5.1 ReDub – Ingles AC3 5.1 Bluray
RESUBIDO!!!

Ficha técnica

Video trailer de la película

Enlaces de descarga

Rip de Bluray

Descargar Hocus Pocus: Abracadabra (1993) 1080p Latino




Aportes de DPeliculasHDmega la pass es:dpeliculashdmega.org Aportes de CinemaniaHD la pass es:cinemaniahdd.com Aportes recientes:cinemaniahdd.net
Guardado en : Comedia , Familia , Fantasía , HD 1080p , Terror

Películas relacionadas

  • Players (2024) NF WEB-DL 1080p Latino

    Players (2024) NF WEB-DL 1080p Latino

    2024
    Players (2024) NF WEB-DL 1080p Latino

    1h 45m 2024

    Descargar Players (2024) NF WEB-DL 1080p Latino. Una periodista deportiva neoyorquina con un ingenioso...

    Director: Trish Sie

    Género: Comedia

    Actores: Veraalba Santa

  • ¡Patos! (2023) HD 1080p Latino

    ¡Patos! (2023) HD 1080p Latino

    2023
    ¡Patos! (2023) HD 1080p Latino

    1h 23m 2023

    Descargar ¡Patos! (2023) HD 1080p Latino. Después de que una familia de patos migratorios aterriza...

    Director: Guy-Laurent Homsy

    Género: Acción

    Actores: Zeno Robinson

  • ¡Patos! (2023) PLACEBO Full HD 1080p Latino

    ¡Patos! (2023) PLACEBO Full HD 1080p Latino

    2023
    ¡Patos! (2023) PLACEBO Full HD 1080p Latino

    1h 23m 2023

    Descargar ¡Patos! (2023) PLACEBO Full HD 1080p Latino. Después de que una familia de patos migratorios...

    Director: Guy-Laurent Homsy

    Género: Acción

    Actores: Zeno Robinson

descargar Hocus Pocus: Abracadabra (1993) 1080p Latino 1080p 1080p gratis, Hocus Pocus: Abracadabra (1993) 1080p Latino 1080p mega 1 link, Hocus Pocus: Abracadabra (1993) 1080p Latino 1080p pelicula completa, descargar Hocus Pocus: Abracadabra (1993) 1080p Latino 1080p gratis en mega.

Hocus Pocus: Abracadabra (1993) 1080p Latino pelicula full hd, Hocus Pocus: Abracadabra (1993) 1080p Latino mega latino, Hocus Pocus: Abracadabra (1993) 1080p Latino 4k latino, Hocus Pocus: Abracadabra (1993) 1080p Latino pelicula completa, Hocus Pocus: Abracadabra (1993) 1080p Latino descargar gratis, descargar Hocus Pocus: Abracadabra (1993) 1080p Latino pelicula latino, Hocus Pocus: Abracadabra (1993) 1080p Latino 1 link mega, Hocus Pocus: Abracadabra (1993) 1080p Latino 1 link google drive, Hocus Pocus: Abracadabra (1993) 1080p Latino hd 1080p latino.
Comentarios 0