×

¿Problemas para descargar con Mozilla, EDGE? Deshabilita la opción "Abrir vinculos en una pestaña nueva" tal como lo muestra ésta imagen.

Hocus Pocus: Abracadabra (1993) Full HD 1080p Latino

1.215 vistas

Información de Hocus Pocus: Abracadabra (1993) Full HD 1080p Latino

Datos de la película

  • Calidad: Full 1080p
  • Audio: Se especifica abajo de la Sinopsis
  • Subtitulos: Español Latino PGS - Ingles PGS
  • Resolución: 1920x1080p
  • Formato: MKV
  • Codec: H.264
  • Encoder: CinefiloCool | CinemaniaHD
  • Mediainfo: Clic para Mostrar Datos Ver
  • Abracadabra (1993) Full HD 1080p Latino-CMHDD.mkv
    Format                      : Matroska
    Format version              : Version 4
    File size                   : 7.16 GiB
    Duration                    : 1 h 36 min
    Overall bit rate            : 10.6 Mb/s
    Movie name                  : Hocus Pocus (1993) CinemaniaHDD.Net
    Encoded date                : UTC 2022-10-05 15:23:56
    Writing application         : mkvmerge v56.1.0 ('My Friend') 64-bit
    Writing library             : libebml v1.4.2 + libmatroska v1.6.4
    Attachments                 : CINEMANIAHD.png

    Video
    ID                          : 1
    Format                      : AVC
    Format/Info                 : Advanced Video Codec
    Format profile              : High@L4.1
    Format settings             : CABAC / 4 Ref Frames
    Format settings, CABAC      : Yes
    Format settings, Reference  : 4 frames
    Codec ID                    : V_MPEG4/ISO/AVC
    Duration                    : 1 h 36 min
    Bit rate                    : 8 233 kb/s
    Width                       : 1 920 pixels
    Height                      : 1 080 pixels
    Display aspect ratio        : 16:9
    Frame rate mode             : Constant
    Frame rate                  : 23.976 (24000/1001) FPS
    Color space                 : YUV
    Chroma subsampling          : 4:2:0
    Bit depth                   : 8 bits
    Scan type                   : Progressive
    Bits/(Pixel*Frame)          : 0.166
    Stream size                 : 5.53 GiB (77%)
    Title                       : Full HD1080p [CinemaniaHDD]
    Writing library             : x264 core 163 r3059 b684ebe0
    Encoding settings           : cabac=1 / ref=4 / deblock=1:0:0 / analyse=0x3:0x133 / me=tesa / subme=11 / psy=1 / psy_rd=1.00:0.00 / mixed_ref=1 / me_range=24 / chroma_me=1 / trellis=2 / 8x8dct=1 / cqm=0 / deadzone=21,11 / fast_pskip=0 / chroma_qp_offset=-2 / threads=24 / lookahead_threads=6 / sliced_threads=0 / nr=0 / decimate=1 / interlaced=0 / bluray_compat=0 / constrained_intra=0 / bframes=16 / b_pyramid=2 / b_adapt=2 / b_bias=0 / direct=3 / weightb=1 / open_gop=0 / weightp=2 / keyint=240 / keyint_min=24 / scenecut=40 / intra_refresh=0 / rc_lookahead=60 / rc=crf / mbtree=1 / crf=20.0 / qcomp=0.60 / qpmin=0 / qpmax=69 / qpstep=4 / vbv_maxrate=62500 / vbv_bufsize=78125 / crf_max=0.0 / nal_hrd=none / filler=0 / ip_ratio=1.40 / aq=1:1.00
    Default                     : Yes
    Forced                      : Yes
    Color range                 : Limited
    Color primaries             : BT.709
    Transfer characteristics    : BT.709
    Matrix coefficients         : BT.709

    Audio #1
    ID                          : 2
    Format                      : AC-3
    Format/Info                 : Audio Coding 3
    Commercial name             : Dolby Digital
    Codec ID                    : A_AC3
    Duration                    : 1 h 36 min
    Bit rate mode               : Constant
    Bit rate                    : 256 kb/s
    Channel(s)                  : 2 channels
    Channel layout              : L R
    Sampling rate               : 48.0 kHz
    Frame rate                  : 31.250 FPS (1536 SPF)
    Compression mode            : Lossy
    Stream size                 : 176 MiB (2%)
    Title                       : Español Latino Dub ORG [CinemaniaHDD]
    Language                    : Spanish
    Service kind                : Complete Main
    Default                     : No
    Forced                      : No

    Audio #2
    ID                          : 3
    Format                      : AC-3
    Format/Info                 : Audio Coding 3
    Commercial name             : Dolby Digital
    Codec ID                    : A_AC3
    Duration                    : 1 h 36 min
    Bit rate mode               : Constant
    Bit rate                    : 640 kb/s
    Channel(s)                  : 6 channels
    Channel layout              : L R C LFE Ls Rs
    Sampling rate               : 48.0 kHz
    Frame rate                  : 31.250 FPS (1536 SPF)
    Compression mode            : Lossy
    Stream size                 : 441 MiB (6%)
    Title                       : Español Latino ReDub [CinemaniaHDD]
    Language                    : Spanish
    Service kind                : Complete Main
    Default                     : Yes
    Forced                      : Yes

    Audio #3
    ID                          : 4
    Format                      : DTS
    Format/Info                 : Digital Theater Systems
    Codec ID                    : A_DTS
    Duration                    : 1 h 36 min
    Bit rate mode               : Constant
    Bit rate                    : 1 509 kb/s
    Channel(s)                  : 6 channels
    Channel layout              : C L R Ls Rs LFE
    Sampling rate               : 48.0 kHz
    Frame rate                  : 93.750 FPS (512 SPF)
    Bit depth                   : 24 bits
    Compression mode            : Lossy
    Stream size                 : 1.01 GiB (14%)
    Title                       : Ingles [CinemaniaHDD]
    Language                    : English
    Default                     : No
    Forced                      : No

    Text #1
    ID                          : 5
    Format                      : PGS
    Muxing mode                 : zlib
    Codec ID                    : S_HDMV/PGS
    Codec ID/Info               : Picture based subtitle format used on BDs/HD-DVDs
    Duration                    : 1 h 31 min
    Bit rate                    : 28.3 kb/s
    Count of elements           : 2244
    Stream size                 : 18.5 MiB (0%)
    Title                       : Español-PGS [CinemaniaHDD]
    Language                    : Spanish
    Default                     : No
    Forced                      : No

    Text #2
    ID                          : 6
    Format                      : PGS
    Muxing mode                 : zlib
    Codec ID                    : S_HDMV/PGS
    Codec ID/Info               : Picture based subtitle format used on BDs/HD-DVDs
    Duration                    : 1 h 33 min
    Bit rate                    : 37.6 kb/s
    Count of elements           : 2756
    Stream size                 : 25.0 MiB (0%)
    Title                       : Ingles-PGS [CinemaniaHDD]
    Language                    : English
    Default                     : No
    Forced                      : No

    Text #3
    ID                          : 7
    Format                      : UTF-8
    Codec ID                    : S_TEXT/UTF8
    Codec ID/Info               : UTF-8 Plain Text
    Duration                    : 49 min 19 s
    Bit rate                    : 0 b/s
    Count of elements           : 4
    Stream size                 : 101 Bytes (0%)
    Title                       : Forzados-SRT [CinemaniaHDD]
    Language                    : Spanish
    Default                     : Yes
    Forced                      : Yes

    Text #4
    ID                          : 8
    Format                      : UTF-8
    Codec ID                    : S_TEXT/UTF8
    Codec ID/Info               : UTF-8 Plain Text
    Duration                    : 1 h 31 min
    Bit rate                    : 45 b/s
    Count of elements           : 1122
    Stream size                 : 30.7 KiB (0%)
    Title                       : Español-SRT [CinemaniaHDD]
    Language                    : Spanish
    Default                     : No
    Forced                      : No

    Menu
    00:00:00.000                : Chapter01
    00:08:40.937                : Chapter02
    00:14:01.465                : Chapter03
    00:20:20.010                : Chapter04
    00:26:46.479                : Chapter05
    00:32:11.596                : Chapter06
    00:36:44.076                : Chapter07
    00:43:59.595                : Chapter08
    00:48:04.298                : Chapter09
    00:54:18.630                : Chapter10
    01:01:23.346                : Chapter11
    01:06:03.167                : Chapter12
    01:08:22.723                : Chapter13
    01:14:39.850                : Chapter14
    01:21:30.343                : Chapter15
    01:29:10.553                : Chapter16
    01:36:07.970                : Chapter17

  • Peso: 7.16 GiB

Sinopsis

Descargar Hocus Pocus: Abracadabra (1993) Full HD 1080p Latino. Tres brujas del siglo XII son invocadas durante la noche de Halloween en la ciudad de Salem, Massachusetts, de manera accidental por unos niños. Desterradas hace 300 años por sus prácticas de brujería, este trío prometió volver algún día para sembrar el caos. Ahora aprovecharán la ocasión para cumplir su promesa. Una comedia realizada por la factoría Disney con vistas a su exhibición en la fiesta de Halloween.

Audio Español Latino AC3 2.0 Dub ORG – AC3 5.1 ReDub – Ingles DTS 5.1 Bluray
RESUBIDO!!!

Ficha técnica

Video trailer de la película

Enlaces de descarga

Rip de Bluray

Descargar Hocus Pocus: Abracadabra (1993) Full HD 1080p Latino




Aportes de DPeliculasHDmega la pass es:dpeliculashdmega.org Aportes de CinemaniaHD la pass es:cinemaniahdd.com

Películas relacionadas

  • Resurrección (2022) AMZN WEB-DL 1080p Latino

    Resurrección (2022) AMZN WEB-DL 1080p Latino

    2022
    Resurrección (2022) AMZN WEB-DL 1080p Latino

    1h 43m 2022

    Descargar Resurrección (2022) AMZN Web-DL 1080p Latino. La vida cuidadosamente construida de una mujer...

    Director: Michael Kefeyalew

    Género: Drama

    Actores: Zarra Kaahn

  • Lilo, Lilo, cocodrilo (2022) WEB-DL 1080p Latino

    Lilo, Lilo, cocodrilo (2022) WEB-DL 1080p Latino

    2022
    Lilo, Lilo, cocodrilo (2022) WEB-DL 1080p Latino

    1h 46m 2022

    Descargar Lilo, Lilo, cocodrilo (2022) WEB-DL 1080p Latino. Cuando la familia Primm se muda a Nueva York,...

    Director: Will Speck

    Género: Comedia

    Actores: Zeb Slone

descargar Hocus Pocus: Abracadabra (1993) Full HD 1080p Latino Full 1080p 1080p gratis, Hocus Pocus: Abracadabra (1993) Full HD 1080p Latino Full 1080p mega 1 link, Hocus Pocus: Abracadabra (1993) Full HD 1080p Latino Full 1080p pelicula completa, descargar Hocus Pocus: Abracadabra (1993) Full HD 1080p Latino Full 1080p gratis en mega.

Hocus Pocus: Abracadabra (1993) Full HD 1080p Latino pelicula full hd, Hocus Pocus: Abracadabra (1993) Full HD 1080p Latino mega latino, Hocus Pocus: Abracadabra (1993) Full HD 1080p Latino 4k latino, Hocus Pocus: Abracadabra (1993) Full HD 1080p Latino pelicula completa, Hocus Pocus: Abracadabra (1993) Full HD 1080p Latino descargar gratis, descargar Hocus Pocus: Abracadabra (1993) Full HD 1080p Latino pelicula latino, Hocus Pocus: Abracadabra (1993) Full HD 1080p Latino 1 link mega, Hocus Pocus: Abracadabra (1993) Full HD 1080p Latino 1 link google drive, Hocus Pocus: Abracadabra (1993) Full HD 1080p Latino hd 1080p latino.
Comentarios 0