×

¿Problemas para descargar con Mozilla, EDGE? Deshabilita la opción "Abrir vinculos en una pestaña nueva" tal como lo muestra ésta imagen.

Hitman’s Wife’s Bodyguard (2021) REMUX 4K HDR Latino – CMHDD

165 vistas

Información de Hitman’s Wife’s Bodyguard (2021) REMUX 4K HDR Latino – CMHDD

Datos de la película

  • Calidad: 4K HDR
  • Audio: Español Latino AC3 5.1 BLURAY - Ingles AC3 5.1 BLURAY
  • Subtitulos: Español Latino PGS
  • Resolución: 3840x2160p
  • Formato: MKV
  • Codec: H.264
  • Encoder: Dracarys
  • Mediainfo: Clic para Mostrar Datos Ver
  • Format                      : Matroska
    Format version              : Version 4
    File size                   : 52.9 GiB
    Duration                    : 1 h 39 min
    Overall bit rate mode       : Variable
    Overall bit rate            : 76.0 Mb/s
    Movie name                  : Hitman's Wife's Bodyguard (2021) REMUX 4K HDR Latino - CMHDD
    Encoded date                : UTC 2021-08-15 18:14:54
    Writing application         : mkvmerge v56.1.0 ('My Friend') 64-bit
    Writing library             : libebml v1.4.2 + libmatroska v1.6.4
    Cover                       : Yes
    Attachments                 : cover.jpg

    Video
    ID                          : 1
    ID in the original source m : 4113 (0x1011)
    Format                      : HEVC
    Format/Info                 : High Efficiency Video Coding
    Format profile              : Main 10@L5.1@High
    HDR format                  : SMPTE ST 2086, HDR10 compatible
    Codec ID                    : V_MPEGH/ISO/HEVC
    Duration                    : 1 h 39 min
    Bit rate                    : 71.7 Mb/s
    Width                       : 3 840 pixels
    Height                      : 2 160 pixels
    Display aspect ratio        : 16:9
    Frame rate mode             : Constant
    Frame rate                  : 23.976 (24000/1001) FPS
    Color space                 : YUV
    Chroma subsampling          : 4:2:0 (Type 2)
    Bit depth                   : 10 bits
    Bits/(Pixel*Frame)          : 0.360
    Stream size                 : 49.9 GiB (94%)
    Default                     : Yes
    Forced                      : No
    Color range                 : Limited
    Color primaries             : BT.2020
    Transfer characteristics    : PQ
    Matrix coefficients         : BT.2020 non-constant
    Mastering display color pri : Display P3
    Mastering display luminance : min: 0.0010 cd/m2, max: 1000 cd/m2
    Maximum Content Light Level : 1000 cd/m2
    Maximum Frame-Average Light : 543 cd/m2
    Original source medium      : Blu-ray

    Audio #1
    ID                          : 2
    ID in the original source m : 4352 (0x1100)
    Format                      : MLP FBA 16-ch
    Format/Info                 : Meridian Lossless Packing FBA with 16-channel presentation
    Commercial name             : Dolby TrueHD with Dolby Atmos
    Codec ID                    : A_TRUEHD
    Duration                    : 1 h 39 min
    Bit rate mode               : Variable
    Bit rate                    : 2 930 kb/s
    Maximum bit rate            : 4 608 kb/s
    Channel(s)                  : 8 channels
    Channel layout              : L R C LFE Ls Rs Lb Rb
    Sampling rate               : 48.0 kHz
    Frame rate                  : 1 200.000 FPS (40 SPF)
    Compression mode            : Lossless
    Stream size                 : 2.04 GiB (4%)
    Language                    : English
    Default                     : No
    Forced                      : No
    Original source medium      : Blu-ray
    Number of dynamic objects   : 15
    Bed channel count           : 1 channel
    Bed channel configuration   : LFE

    Audio #2
    ID                          : 3
    ID in the original source m : 4352 (0x1100)
    Format                      : AC-3
    Format/Info                 : Audio Coding 3
    Commercial name             : Dolby Digital
    Format settings             : Dolby Surround EX
    Codec ID                    : A_AC3
    Duration                    : 1 h 39 min
    Bit rate mode               : Constant
    Bit rate                    : 640 kb/s
    Channel(s)                  : 6 channels
    Channel layout              : L R C LFE Ls Rs
    Sampling rate               : 48.0 kHz
    Frame rate                  : 31.250 FPS (1536 SPF)
    Compression mode            : Lossy
    Stream size                 : 456 MiB (1%)
    Language                    : English
    Service kind                : Complete Main
    Default                     : No
    Forced                      : No
    Original source medium      : Blu-ray

    Audio #3
    ID                          : 4
    ID in the original source m : 4354 (0x1102)
    Format                      : AC-3
    Format/Info                 : Audio Coding 3
    Commercial name             : Dolby Digital
    Codec ID                    : A_AC3
    Duration                    : 1 h 39 min
    Bit rate mode               : Constant
    Bit rate                    : 640 kb/s
    Channel(s)                  : 6 channels
    Channel layout              : L R C LFE Ls Rs
    Sampling rate               : 48.0 kHz
    Frame rate                  : 31.250 FPS (1536 SPF)
    Compression mode            : Lossy
    Stream size                 : 456 MiB (1%)
    Language                    : Spanish
    Service kind                : Complete Main
    Default                     : Yes
    Forced                      : No
    Original source medium      : Blu-ray

    Text
    ID                          : 5
    ID in the original source m : 4769 (0x12A1)
    Format                      : PGS
    Muxing mode                 : zlib
    Codec ID                    : S_HDMV/PGS
    Codec ID/Info               : Picture based subtitle format used on BDs/HD-DVDs
    Duration                    : 1 h 39 min
    Bit rate                    : 41.1 kb/s
    Count of elements           : 2833
    Stream size                 : 29.1 MiB (0%)
    Language                    : Spanish
    Default                     : Yes
    Forced                      : No
    Original source medium      : Blu-ray

    Menu
    00:00:00.000                : Chapter 01
    00:05:30.663                : Chapter 02
    00:12:17.236                : Chapter 03
    00:20:47.788                : Chapter 04
    00:26:59.909                : Chapter 05
    00:30:44.217                : Chapter 06
    00:37:09.518                : Chapter 07
    00:46:16.899                : Chapter 08
    00:49:42.854                : Chapter 09
    00:55:01.381                : Chapter 10
    00:59:19.472                : Chapter 11
    01:04:09.720                : Chapter 12
    01:13:17.559                : Chapter 13
    01:17:44.326                : Chapter 14
    01:22:40.914                : Chapter 15
    01:30:11.155                : Chapter 16

  • Peso: 52.9 GiB

Sinopsis

La pareja más letal del mundo, el guardaespaldas Michael Bryce y el asesino a sueldo Darius Kincaid, están de vuelta en otra misión que amenaza su vida. Aún sin licencia y bajo escrutinio, Bryce se ve obligado a actuar por la esposa aún más volátil de Darius, la infame estafadora internacional Sonia Kincaid. Mientras Bryce es conducido al límite por sus dos protegidos más peligrosos, el trío se mete en la cabeza en una trama global y pronto descubre que son todo lo que se interpone entre Europa y un loco vengativo y poderoso.

Ficha técnica

Video trailer de la película

Enlaces de descarga

Rip de Bluray

Descargar Hitman’s Wife’s Bodyguard (2021) REMUX 4K HDR Latino – CMHDD


Aportes de DPeliculasHDmega la pass es:dpeliculashdmega.org Aportes de CinemaniaHD la pass es:cinemaniahdd.com
Guardado en : Acción , Comedia , Suspenso

Películas relacionadas

descargar Hitman’s Wife’s Bodyguard (2021) REMUX 4K HDR Latino – CMHDD 4K HDR 1080p gratis, Hitman’s Wife’s Bodyguard (2021) REMUX 4K HDR Latino – CMHDD 4K HDR mega 1 link, Hitman’s Wife’s Bodyguard (2021) REMUX 4K HDR Latino – CMHDD 4K HDR pelicula completa, descargar Hitman’s Wife’s Bodyguard (2021) REMUX 4K HDR Latino – CMHDD 4K HDR gratis en mega.

Hitman’s Wife’s Bodyguard (2021) REMUX 4K HDR Latino – CMHDD pelicula full hd, Hitman’s Wife’s Bodyguard (2021) REMUX 4K HDR Latino – CMHDD mega latino, Hitman’s Wife’s Bodyguard (2021) REMUX 4K HDR Latino – CMHDD 4k latino, Hitman’s Wife’s Bodyguard (2021) REMUX 4K HDR Latino – CMHDD pelicula completa, Hitman’s Wife’s Bodyguard (2021) REMUX 4K HDR Latino – CMHDD descargar gratis, descargar Hitman’s Wife’s Bodyguard (2021) REMUX 4K HDR Latino – CMHDD pelicula latino, Hitman’s Wife’s Bodyguard (2021) REMUX 4K HDR Latino – CMHDD 1 link mega, Hitman’s Wife’s Bodyguard (2021) REMUX 4K HDR Latino – CMHDD 1 link google drive, Hitman’s Wife’s Bodyguard (2021) REMUX 4K HDR Latino – CMHDD hd 1080p latino.