×

¿Problemas para descargar con Mozilla, EDGE? Deshabilita la opción "Abrir vinculos en una pestaña nueva" tal como lo muestra ésta imagen.

Historia de honor (2022) WEB-DL 4K UHD HDR Latino

46 vistas

Información de Historia de honor (2022) WEB-DL 4K UHD HDR Latino

Datos de la película

  • Calidad: WEBDL
  • Audio: Español Latino AC3 5.1 WEB-DL - Ingles AC3 5.1 WEB-DL
  • Subtitulos: Español Latino SRT- FORZADOS SRT
  • Resolución: 3840x2160p
  • Formato: MKV
  • Codec: HEVC
  • Encoder: Melkor
  • Mediainfo: Clic para Mostrar Datos Ver
  • Historia De Honor (2022) WEB UHD HDR Latino.mkv Format                      : Matroska Format version              : Version 4 File size                   : 14.5 GiB Duration                    : 2 h 19 min Overall bit rate            : 14.9 Mb/s Movie name                  : Devotion (2022) CinemaniaHDD.Net Encoded date                : UTC 2023-01-20 06:03:39 Writing application         : mkvmerge v56.1.0 ('My Friend') 64-bit Writing library             : libebml v1.4.2 + libmatroska v1.6.4 Attachments                 : CINEMANIAHD.png Video ID                          : 1 Format                      : HEVC Format/Info                 : High Efficiency Video Coding Format profile              : Main 10@L5@Main HDR format                  : Dolby Vision, Version 1.0, dvhe.08.06, BL+RPU, HDR10 compatible / SMPTE ST 2094 App 4, Version 1, HDR10+ Profile B compatible Codec ID                    : V_MPEGH/ISO/HEVC Duration                    : 2 h 19 min Bit rate                    : 13.7 Mb/s Width                       : 3 840 pixels Height                      : 2 160 pixels Display aspect ratio        : 16:9 Frame rate mode             : Constant Frame rate                  : 23.976 (24000/1001) FPS Color space                 : YUV Chroma subsampling          : 4:2:0 (Type 2) Bit depth                   : 10 bits Bits/(Pixel*Frame)          : 0.069 Stream size                 : 13.3 GiB (92%) Title                       : Web 2160p HDR [CinemaniaHDD] Language                    : English Default                     : Yes Forced                      : No Color range                 : Limited Color primaries             : BT.2020 Transfer characteristics    : PQ Matrix coefficients         : BT.2020 non-constant Mastering display color pri : BT.2020 Mastering display luminance : min: 0.0001 cd/m2, max: 1000 cd/m2 Maximum Content Light Level : 173 cd/m2 Maximum Frame-Average Light : 18 cd/m2 Audio #1 ID                          : 2 Format                      : AC-3 Format/Info                 : Audio Coding 3 Commercial name             : Dolby Digital Codec ID                    : A_AC3 Duration                    : 2 h 19 min Bit rate mode               : Constant Bit rate                    : 448 kb/s Channel(s)                  : 6 channels Channel layout              : L R C LFE Ls Rs Sampling rate               : 48.0 kHz Frame rate                  : 31.250 FPS (1536 SPF) Compression mode            : Lossy Stream size                 : 445 MiB (3%) Title                       : Español Latino [CinemaniaHDD] Language                    : Spanish Service kind                : Complete Main Default                     : Yes Forced                      : Yes Audio #2 ID                          : 3 Format                      : E-AC-3 JOC Format/Info                 : Enhanced AC-3 with Joint Object Coding Commercial name             : Dolby Digital Plus with Dolby Atmos Codec ID                    : A_EAC3 Duration                    : 2 h 19 min Bit rate mode               : Constant Bit rate                    : 768 kb/s Channel(s)                  : 6 channels Channel layout              : L R C LFE Ls Rs Sampling rate               : 48.0 kHz Frame rate                  : 31.250 FPS (1536 SPF) Compression mode            : Lossy Stream size                 : 764 MiB (5%) Title                       : Ingles [CinemaniaHDD] Language                    : English Service kind                : Complete Main Default                     : No Forced                      : No Complexity index            : 16 Number of dynamic objects   : 15 Bed channel count           : 1 channel Bed channel configuration   : LFE Text #1 ID                          : 4 Format                      : UTF-8 Codec ID                    : S_TEXT/UTF8 Codec ID/Info               : UTF-8 Plain Text Duration                    : 2 h 18 min Bit rate                    : 1 b/s Count of elements           : 32 Stream size                 : 1.61 KiB (0%) Title                       : Forzados-SRT [CinemaniaHDD] Language                    : Spanish Default                     : Yes Forced                      : Yes Text #2 ID                          : 5 Format                      : UTF-8 Codec ID                    : S_TEXT/UTF8 Codec ID/Info               : UTF-8 Plain Text Duration                    : 2 h 10 min Bit rate                    : 50 b/s Count of elements           : 1439 Stream size                 : 48.6 KiB (0%) Title                       : Español-SRT [CinemaniaHDD] Language                    : Spanish Default                     : No Forced                      : No Text #3 ID                          : 6 Format                      : UTF-8 Codec ID                    : S_TEXT/UTF8 Codec ID/Info               : UTF-8 Plain Text Duration                    : 2 h 6 min Bit rate                    : 46 b/s Count of elements           : 1413 Stream size                 : 42.8 KiB (0%) Title                       : Ingles-SRT [CinemaniaHDD] Language                    : English Default                     : No Forced                      : No
  • Peso: 14.5 GiB

Sinopsis

Descargar Historia de honor (2022) WEB-DL 4K UHD HDR Latino. Basada en hechos reales. En 1950, cuando la Guerra Fría amenaza la paz internacional, dos jóvenes pilotos de diferentes mundos son aceptados en un escuadrón de élite para su entrenamiento: uno es Tom Hudner (Glen Powell), un soldado impecable. El otro es Jesse Brown (Jonathan Majors), un talentoso piloto, que se convertiría en el primer afroamericano en volar en combate para la Marina de los Estados Unidos. Iniciados juntos en el escuadrón VF-32, Tom y Jesse son llevados al límite para convertirse en los mejores pilotos de combate. donde formarán una firme amistad.

Ficha técnica

Video trailer de la película

Enlaces de descarga

Rip de Bluray

Descargar Historia de honor (2022) WEB-DL 4K UHD HDR Latino




Aportes de DPeliculasHDmega la pass es:dpeliculashdmega.org Aportes de CinemaniaHD la pass es:cinemaniahdd.com
Guardado en : 4K HDR , 4K UHD , Bélica , Drama , Historia

Películas relacionadas

  • Transfusion (2023) HD 1080p Latino

    Transfusion (2023) HD 1080p Latino

    2023
    Transfusion (2023) HD 1080p Latino

    1h 45m 2023

    Descargar Transfusion (2023) HD 1080p Latino. Un antiguo agente de las Fuerzas Especiales se ve empujado...

    Director: Matt Nable

    Género: Crimen

    Actores: Trystan Go

  • Transfusion (2023) PLACEBO Full HD 1080p Latino

    Transfusion (2023) PLACEBO Full HD 1080p Latino

    2023
    Transfusion (2023) PLACEBO Full HD 1080p Latino

    1h 45m 2023

    Descargar Transfusion (2023) PLACEBO Full HD 1080p Latino. Un antiguo agente de las Fuerzas Especiales...

    Director: Matt Nable

    Género: Crimen

    Actores: Trystan Go

  • Transfusion (2023) REMUX 1080p Latino

    Transfusion (2023) REMUX 1080p Latino

    2023
    Transfusion (2023) REMUX 1080p Latino

    1h 45m 2023

    Descargar Transfusion (2023) REMUX 1080p Latino. Un antiguo agente de las Fuerzas Especiales se ve empujado...

    Director: Matt Nable

    Género: Crimen

    Actores: Trystan Go

  • Quantum Leap (2022) Temporada 1 WEB-DL 1080p Latino

    Quantum Leap (2022) Temporada 1 WEB-DL 1080p Latino

    2022
    Quantum Leap (2022) Temporada 1 WEB-DL 1080p Latino

    0h 43m 2022

    Han pasado 27 años desde que el Dr. Sam Beckett pisó el acelerador Quantum Leap y desapareció. Ahora...

    Director: Donald P. Bellisario

    Género: Drama

    Actores: Raymond Lee

  • Gladiador (2000) EXTENDED CUT 1080p Latino

    Gladiador (2000) EXTENDED CUT 1080p Latino

    2000
    Gladiador (2000) EXTENDED CUT 1080p Latino

    2h 35m 2000

    Gladiador (2000) EXTENDED CUT 1080p Latino. Máximo, General de las Legiones Romanas, es querido por...

    Director: Ridley Scott

    Género: Acción

    Actores: Tony Curran

descargar Historia de honor (2022) WEB-DL 4K UHD HDR Latino WEBDL 1080p gratis, Historia de honor (2022) WEB-DL 4K UHD HDR Latino WEBDL mega 1 link, Historia de honor (2022) WEB-DL 4K UHD HDR Latino WEBDL pelicula completa, descargar Historia de honor (2022) WEB-DL 4K UHD HDR Latino WEBDL gratis en mega.

Historia de honor (2022) WEB-DL 4K UHD HDR Latino pelicula full hd, Historia de honor (2022) WEB-DL 4K UHD HDR Latino mega latino, Historia de honor (2022) WEB-DL 4K UHD HDR Latino 4k latino, Historia de honor (2022) WEB-DL 4K UHD HDR Latino pelicula completa, Historia de honor (2022) WEB-DL 4K UHD HDR Latino descargar gratis, descargar Historia de honor (2022) WEB-DL 4K UHD HDR Latino pelicula latino, Historia de honor (2022) WEB-DL 4K UHD HDR Latino 1 link mega, Historia de honor (2022) WEB-DL 4K UHD HDR Latino 1 link google drive, Historia de honor (2022) WEB-DL 4K UHD HDR Latino hd 1080p latino.
Comentarios 0