×

¿Problemas para descargar con Mozilla, EDGE? Deshabilita la opción "Abrir vinculos en una pestaña nueva" tal como lo muestra ésta imagen.

Historia de honor (2022) AMZN WEB-DL 1080p Latino

31 vistas

Información de Historia de honor (2022) AMZN WEB-DL 1080p Latino

Datos de la película

  • Calidad: WEBDL
  • Audio: Español Latino AC3 5.1 WEB-DL - Ingles AC3 5.1 WEB-DL
  • Subtitulos: Español Latino SRT- FORZADOS SRT
  • Resolución: 1920x872p
  • Formato: MKV
  • Codec: H.264
  • Encoder: Melkor
  • Mediainfo: Clic para Mostrar Datos Ver
  • Historia De Honor (2022) AMZN WebDL 1080p Latino.mkv Format                      : Matroska Format version              : Version 4 File size                   : 10.4 GiB Duration                    : 2 h 19 min Overall bit rate            : 10.7 Mb/s Movie name                  : Devotion (2022) CinemaniaHDD.Net Encoded date                : UTC 2023-01-20 05:24:46 Writing application         : mkvmerge v56.1.0 ('My Friend') 64-bit Writing library             : libebml v1.4.2 + libmatroska v1.6.4 Video ID                          : 1 Format                      : AVC Format/Info                 : Advanced Video Codec Format profile              : High@L4 Format settings             : CABAC / 4 Ref Frames Format settings, CABAC      : Yes Format settings, Reference  : 4 frames Codec ID                    : V_MPEG4/ISO/AVC Duration                    : 2 h 19 min Bit rate mode               : Constant Bit rate                    : 9 490 kb/s Nominal bit rate            : 10 000 kb/s Width                       : 1 920 pixels Height                      : 872 pixels Display aspect ratio        : 2.2:1 Frame rate mode             : Constant Frame rate                  : 23.976 (24000/1001) FPS Color space                 : YUV Chroma subsampling          : 4:2:0 Bit depth                   : 8 bits Scan type                   : Progressive Bits/(Pixel*Frame)          : 0.236 Stream size                 : 9.23 GiB (89%) Title                       : Web HD1080p [CinemaniaHDD] Language                    : English Default                     : Yes Forced                      : Yes Color range                 : Limited Color primaries             : BT.709 Transfer characteristics    : BT.709 Matrix coefficients         : BT.709 Audio #1 ID                          : 2 Format                      : AC-3 Format/Info                 : Audio Coding 3 Commercial name             : Dolby Digital Codec ID                    : A_AC3 Duration                    : 2 h 19 min Bit rate mode               : Constant Bit rate                    : 448 kb/s Channel(s)                  : 6 channels Channel layout              : L R C LFE Ls Rs Sampling rate               : 48.0 kHz Frame rate                  : 31.250 FPS (1536 SPF) Compression mode            : Lossy Stream size                 : 445 MiB (4%) Title                       : Español Latino [CinemaniaHDD] Language                    : Spanish Service kind                : Complete Main Default                     : Yes Forced                      : Yes Audio #2 ID                          : 3 Format                      : E-AC-3 JOC Format/Info                 : Enhanced AC-3 with Joint Object Coding Commercial name             : Dolby Digital Plus with Dolby Atmos Codec ID                    : A_EAC3 Duration                    : 2 h 19 min Bit rate mode               : Constant Bit rate                    : 768 kb/s Channel(s)                  : 6 channels Channel layout              : L R C LFE Ls Rs Sampling rate               : 48.0 kHz Frame rate                  : 31.250 FPS (1536 SPF) Compression mode            : Lossy Delay relative to video     : 20 ms Stream size                 : 764 MiB (7%) Title                       : Ingles [CinemaniaHDD] Language                    : English Service kind                : Complete Main Default                     : No Forced                      : No Complexity index            : 16 Number of dynamic objects   : 15 Bed channel count           : 1 channel Bed channel configuration   : LFE Text #1 ID                          : 4 Format                      : UTF-8 Codec ID                    : S_TEXT/UTF8 Codec ID/Info               : UTF-8 Plain Text Duration                    : 2 h 18 min Bit rate                    : 1 b/s Count of elements           : 32 Stream size                 : 1.61 KiB (0%) Title                       : Forzados-SRT [CinemaniaHDD] Language                    : Spanish Default                     : Yes Forced                      : Yes Text #2 ID                          : 5 Format                      : UTF-8 Codec ID                    : S_TEXT/UTF8 Codec ID/Info               : UTF-8 Plain Text Duration                    : 2 h 10 min Bit rate                    : 50 b/s Count of elements           : 1439 Stream size                 : 48.6 KiB (0%) Title                       : Español-SRT [CinemaniaHDD] Language                    : Spanish Default                     : No Forced                      : No Text #3 ID                          : 6 Format                      : UTF-8 Codec ID                    : S_TEXT/UTF8 Codec ID/Info               : UTF-8 Plain Text Duration                    : 2 h 7 min Bit rate                    : 53 b/s Count of elements           : 1666 Stream size                 : 49.8 KiB (0%) Title                       : Ingles-SRT [CinemaniaHDD] Language                    : English Default                     : No Forced                      : No Menu 00:00:00.020                : Chapter 01 00:05:55.166                : Chapter 02 00:16:04.651                : Chapter 03 00:24:10.136                : Chapter 04 00:29:07.976                : Chapter 05 00:40:14.434                : Chapter 06 00:49:49.092                : Chapter 07 00:56:15.729                : Chapter 08 01:06:05.527                : Chapter 09 01:11:36.191                : Chapter 10 01:16:36.741                : Chapter 11 01:24:02.103                : Chapter 12 01:34:06.583                : Chapter 13 01:42:00.432                : Chapter 14 01:53:06.848                : Chapter 15 02:02:53.268                : Chapter 16 02:09:33.126                : Chapter 17
  • Peso: 10.4 GiB

Sinopsis

Descargar Historia de honor (2022) AMZN WEB-DL 1080p Latino. Basada en hechos reales. En 1950, cuando la Guerra Fría amenaza la paz internacional, dos jóvenes pilotos de diferentes mundos son aceptados en un escuadrón de élite para su entrenamiento: uno es Tom Hudner (Glen Powell), un soldado impecable. El otro es Jesse Brown (Jonathan Majors), un talentoso piloto, que se convertiría en el primer afroamericano en volar en combate para la Marina de los Estados Unidos. Iniciados juntos en el escuadrón VF-32, Tom y Jesse son llevados al límite para convertirse en los mejores pilotos de combate. donde formarán una firme amistad.

Ficha técnica

Video trailer de la película

Enlaces de descarga

Rip de Bluray

Descargar Historia de honor (2022) AMZN WEB-DL 1080p Latino




Aportes de DPeliculasHDmega la pass es:dpeliculashdmega.org Aportes de CinemaniaHD la pass es:cinemaniahdd.com
Guardado en : Bélica , Drama , Historia

Películas relacionadas

  • El discurso del Rey (2010) 1080p Latino

    El discurso del Rey (2010) 1080p Latino

    2010
    El discurso del Rey (2010) 1080p Latino

    1h 58m 2010

    Descargar El discurso del Rey (2010) 1080p Latino. El duque de York se convirtió en rey de Gran Bretaña...

    Director: Tom Hooper

    Género: Drama

    Actores: Tony Earnshaw

  • El discurso del Rey (2010) Full HD 1080p Latino

    El discurso del Rey (2010) Full HD 1080p Latino

    2010
    El discurso del Rey (2010) Full HD 1080p Latino

    1h 58m 2010

    Descargar El discurso del Rey (2010) Full HD 1080p Latino. El duque de York se convirtió en rey de Gran...

    Director: Tom Hooper

    Género: Drama

    Actores: Tony Earnshaw

  • El discurso del Rey (2010) REMUX 1080p Latino

    El discurso del Rey (2010) REMUX 1080p Latino

    2010
    El discurso del Rey (2010) REMUX 1080p Latino

    1h 58m 2010

    Descargar El discurso del Rey (2010) REMUX 1080p Latino. El duque de York se convirtió en rey de Gran...

    Director: Tom Hooper

    Género: Drama

    Actores: Tony Earnshaw

  • 8 Mile (2002) REMUX 4K HDR Latino – CMHDD

    8 Mile (2002) REMUX 4K HDR Latino – CMHDD

    2002
    8 Mile (2002) REMUX 4K HDR Latino – CMHDD

    1h 50m 2002

    Detroit, 1995. La promesa de potencia industrial se ha transformado en un hervidero de conflictos económicos...

    Director: Michael J. Moore

    Género: Drama

    Actores: Xzibit

descargar Historia de honor (2022) AMZN WEB-DL 1080p Latino WEBDL 1080p gratis, Historia de honor (2022) AMZN WEB-DL 1080p Latino WEBDL mega 1 link, Historia de honor (2022) AMZN WEB-DL 1080p Latino WEBDL pelicula completa, descargar Historia de honor (2022) AMZN WEB-DL 1080p Latino WEBDL gratis en mega.

Historia de honor (2022) AMZN WEB-DL 1080p Latino pelicula full hd, Historia de honor (2022) AMZN WEB-DL 1080p Latino mega latino, Historia de honor (2022) AMZN WEB-DL 1080p Latino 4k latino, Historia de honor (2022) AMZN WEB-DL 1080p Latino pelicula completa, Historia de honor (2022) AMZN WEB-DL 1080p Latino descargar gratis, descargar Historia de honor (2022) AMZN WEB-DL 1080p Latino pelicula latino, Historia de honor (2022) AMZN WEB-DL 1080p Latino 1 link mega, Historia de honor (2022) AMZN WEB-DL 1080p Latino 1 link google drive, Historia de honor (2022) AMZN WEB-DL 1080p Latino hd 1080p latino.
Comentarios 0