×

¿Problemas para descargar con Mozilla, EDGE? Deshabilita la opción "Abrir vinculos en una pestaña nueva" tal como lo muestra ésta imagen.

His Dark Materials (2019) Temporada 1 AMZN WEB-DL 1080p Latino

9.992 vistas

Información de His Dark Materials (2019) Temporada 1 AMZN WEB-DL 1080p Latino

Datos de la película

  • Calidad: WEBDL
  • Audio: Español Latino AC3 2.0 WEB-DL - Ingles AC3 5.1 WEB-DL
  • Subtitulos: Español Latino SRT- FORZADOS SRT
  • Resolución: 1920x1080
  • Formato: MKV
  • Codec: H.264
  • Encoder: cinemaniahdd
  • Mediainfo: Clic para Mostrar Datos Ver
  • His Dark Materials T01E07 AMZN WEB-DL 1080p Latino.mkv
    Format                      : Matroska
    Format version              : Version 4
    File size                   : 4.40 GiB
    Duration                    : 59 min 42 s
    Overall bit rate            : 10.5 Mb/s
    Movie name                  : His Dark Materials T01E07 - CinemaniaHDD.Net
    Encoded date                : UTC 2019-12-17 04:16:36
    Writing application         : mkvmerge v38.0.0 ('The Silent Type') 64-bit
    Writing library             : libebml v1.3.9 + libmatroska v1.5.2

    Video
    ID                          : 1
    Format                      : AVC
    Format/Info                 : Advanced Video Codec
    Format profile              : High@L4
    Format settings             : CABAC / 4 Ref Frames
    Format settings, CABAC      : Yes
    Format settings, ReFrames   : 4 frames
    Codec ID                    : V_MPEG4/ISO/AVC
    Duration                    : 59 min 42 s
    Bit rate mode               : Constant
    Bit rate                    : 9 388 kb/s
    Nominal bit rate            : 10 000 kb/s
    Width                       : 1 920 pixels
    Height                      : 1 080 pixels
    Display aspect ratio        : 16:9
    Frame rate mode             : Constant
    Frame rate                  : 23.976 (24000/1001) FPS
    Color space                 : YUV
    Chroma subsampling          : 4:2:0
    Bit depth                   : 8 bits
    Scan type                   : Progressive
    Bits/(Pixel*Frame)          : 0.189
    Stream size                 : 3.92 GiB (89%)
    Title                       : CinemaniaHDD
    Default                     : Yes
    Forced                      : No
    Color range                 : Limited
    Color primaries             : BT.709
    Transfer characteristics    : BT.709
    Matrix coefficients         : BT.709

    Audio #1
    ID                          : 2
    Format                      : AC-3
    Format/Info                 : Audio Coding 3
    Commercial name             : Dolby Digital
    Codec ID                    : A_AC3
    Duration                    : 59 min 42 s
    Bit rate mode               : Constant
    Bit rate                    : 256 kb/s
    Channel(s)                  : 2 channels
    Channel layout              : L R
    Sampling rate               : 48.0 kHz
    Frame rate                  : 31.250 FPS (1536 SPF)
    Bit depth                   : 16 bits
    Compression mode            : Lossy
    Delay relative to video     : -36 ms
    Stream size                 : 109 MiB (2%)
    Title                       : Español latino - HBOgo [CinemaniaHDD]
    Language                    : Spanish
    Service kind                : Complete Main
    Default                     : Yes
    Forced                      : No

    Audio #2
    ID                          : 3
    Format                      : AC-3
    Format/Info                 : Audio Coding 3
    Commercial name             : Dolby Digital
    Codec ID                    : A_AC3
    Duration                    : 59 min 42 s
    Bit rate mode               : Constant
    Bit rate                    : 256 kb/s
    Channel(s)                  : 2 channels
    Channel layout              : L R
    Sampling rate               : 48.0 kHz
    Frame rate                  : 31.250 FPS (1536 SPF)
    Bit depth                   : 16 bits
    Compression mode            : Lossy
    Delay relative to video     : -36 ms
    Stream size                 : 109 MiB (2%)
    Title                       : Español latino - HBONow [CinemaniaHDD]
    Language                    : Spanish
    Service kind                : Complete Main
    Default                     : No
    Forced                      : No

    Audio #3
    ID                          : 4
    Format                      : E-AC-3
    Format/Info                 : Enhanced AC-3
    Commercial name             : Dolby Digital Plus
    Codec ID                    : A_EAC3
    Duration                    : 59 min 42 s
    Bit rate mode               : Constant
    Bit rate                    : 640 kb/s
    Channel(s)                  : 6 channels
    Channel layout              : L R C LFE Ls Rs
    Sampling rate               : 48.0 kHz
    Frame rate                  : 31.250 FPS (1536 SPF)
    Compression mode            : Lossy
    Delay relative to video     : -36 ms
    Stream size                 : 273 MiB (6%)
    Title                       : Inglés [CinemaniaHDD]
    Language                    : English
    Service kind                : Complete Main
    Default                     : No
    Forced                      : No

    Text #1
    ID                          : 5
    Format                      : UTF-8
    Codec ID                    : S_TEXT/UTF8
    Codec ID/Info               : UTF-8 Plain Text
    Duration                    : 20 s 0 ms
    Bit rate                    : 6 b/s
    Count of elements           : 1
    Stream size                 : 16.0 Bytes (0%)
    Title                       : Forzados [CinemaniaHDD]
    Language                    : Spanish
    Default                     : Yes
    Forced                      : Yes

    Text #2
    ID                          : 6
    Format                      : UTF-8
    Codec ID                    : S_TEXT/UTF8
    Codec ID/Info               : UTF-8 Plain Text
    Duration                    : 54 min 46 s
    Bit rate                    : 37 b/s
    Count of elements           : 541
    Stream size                 : 14.9 KiB (0%)
    Title                       : Español latino [CinemaniaHDD]
    Language                    : Spanish
    Default                     : No
    Forced                      : No

    Text #3
    ID                          : 7
    Format                      : UTF-8
    Codec ID                    : S_TEXT/UTF8
    Codec ID/Info               : UTF-8 Plain Text
    Duration                    : 59 min 33 s
    Bit rate                    : 44 b/s
    Count of elements           : 724
    Stream size                 : 19.5 KiB (0%)
    Title                       : Inglés [CinemaniaHDD]
    Language                    : English
    Default                     : No
    Forced                      : No

     

  • Peso: 4.40 GiB Aprox ---- 35.4 GiB in 10 Chapters.

Sinopsis

En un mundo similar al nuestro pero habitado por brujas, osos guerreros y daimonions, una valiente joven llamada Lyra (Dafne Keen) descubre un siniestro plan luego de que su mejor amigo sea secuestrado por una organización secreta. Basada en la galardonada saga del autor Philip Pullman, His Dark Materials cuenta con las actuaciones de James McAvoy y Ruth Wilson

Ficha técnica

Video trailer de la película

Enlaces de descarga

Rip de Bluray

Descargar His Dark Materials (2019) Temporada 1 AMZN WEB-DL 1080p Latino




Aportes de DPeliculasHDmega la pass es:dpeliculashdmega.org Aportes de CinemaniaHD la pass es:cinemaniahdd.com
Guardado en : Drama , HBO , Sci-Fi & Fantasy , Series

Películas relacionadas

  • Paradise Highway (2022) HD 1080p Latino

    Paradise Highway (2022) HD 1080p Latino

    2022
    Paradise Highway (2022) HD 1080p Latino

    1h 55m 2022

    Descargar Paradise Highway (2022) HD 1080p Latino. Un camionero se ha visto obligado a pasar de contrabando...

    Director: Anna Gutto

    Género: Crimen

    Actores: Xavier Scott Evans

  • Paradise Highway (2022) PLACEBO Full HD 1080p Latino

    Paradise Highway (2022) PLACEBO Full HD 1080p Latino

    2022
    Paradise Highway (2022) PLACEBO Full HD 1080p Latino

    1h 55m 2022

    Descargar Paradise Highway (2022) PLACEBO Full HD 1080p Latino. Un camionero se ha visto obligado a pasar...

    Director: Anna Gutto

    Género: Crimen

    Actores: Xavier Scott Evans

  • Paradise Highway (2022) REMUX 1080p Latino

    Paradise Highway (2022) REMUX 1080p Latino

    2022
    Paradise Highway (2022) REMUX 1080p Latino

    1h 55m 2022

    Descargar Paradise Highway (2022) REMUX 1080p Latino. Un camionero se ha visto obligado a pasar de contrabando...

    Director: Anna Gutto

    Género: Crimen

    Actores: Xavier Scott Evans

descargar His Dark Materials (2019) Temporada 1 AMZN WEB-DL 1080p Latino WEBDL 1080p gratis, His Dark Materials (2019) Temporada 1 AMZN WEB-DL 1080p Latino WEBDL mega 1 link, His Dark Materials (2019) Temporada 1 AMZN WEB-DL 1080p Latino WEBDL serie completa, descargar His Dark Materials (2019) Temporada 1 AMZN WEB-DL 1080p Latino WEBDL gratis en mega.

His Dark Materials (2019) Temporada 1 AMZN WEB-DL 1080p Latino pelicula full hd, His Dark Materials (2019) Temporada 1 AMZN WEB-DL 1080p Latino mega latino, His Dark Materials (2019) Temporada 1 AMZN WEB-DL 1080p Latino 4k latino, His Dark Materials (2019) Temporada 1 AMZN WEB-DL 1080p Latino pelicula completa, His Dark Materials (2019) Temporada 1 AMZN WEB-DL 1080p Latino descargar gratis, descargar His Dark Materials (2019) Temporada 1 AMZN WEB-DL 1080p Latino pelicula latino, His Dark Materials (2019) Temporada 1 AMZN WEB-DL 1080p Latino 1 link mega, His Dark Materials (2019) Temporada 1 AMZN WEB-DL 1080p Latino 1 link google drive, His Dark Materials (2019) Temporada 1 AMZN WEB-DL 1080p Latino hd 1080p latino.
Comentarios 4
  • mexkarl - 24 diciembre, 2019

    que emoción final de temporada gracias

  • Johan - 26 noviembre, 2019

    Gracias buen aporte

  • Joseee_ET - 26 noviembre, 2019

    Woow, que rapidez. Muchas gracias por el 4to episodio!

  • Sergio20088 - 11 noviembre, 2019

    Gracias