×

¿Problemas para descargar con Mozilla, EDGE? Deshabilita la opción "Abrir vinculos en una pestaña nueva" tal como lo muestra ésta imagen.

Hijos de perra (2023) HD 1080p Latino

175 vistas

Información de Hijos de perra (2023) HD 1080p Latino

Datos de la película

  • Calidad: 1080p
  • Audio: Español Latino AC3 5.1 BLURAY - Ingles AC3 5.1 BLURAY
  • Subtitulos: Español Latino SRT- FORZADOS SRT
  • Resolución: 1920x1036
  • Formato: MKV
  • Codec: H.264
  • Encoder: Melkor
  • Mediainfo: Clic para Mostrar Datos Ver
  • Hijos De Perra (2023) HD 1080p Latino.mkv
    Format                      : Matroska
    Format version              : Version 4
    File size                   : 2.97 GiB
    Duration                    : 1 h 33 min
    Overall bit rate            : 4 560 kb/s
    Movie name                  : Strays (2023) CinemaniaHDD.Net
    Encoded date                : UTC 2023-10-12 03:48:06
    Writing application         : mkvmerge v56.1.0 ('My Friend') 64-bit
    Writing library             : libebml v1.4.2 + libmatroska v1.6.4
    Attachments                 : CINEMANIAHD.png
    Site                        : CinemaniaHDD.Net
    Uploader                    : Melkor

    Video
    ID                          : 1
    Format                      : AVC
    Format/Info                 : Advanced Video Codec
    Format profile              : High@L4.1
    Format settings             : CABAC / 4 Ref Frames
    Format settings, CABAC      : Yes
    Format settings, Reference  : 4 frames
    Codec ID                    : V_MPEG4/ISO/AVC
    Duration                    : 1 h 33 min
    Bit rate                    : 3 500 kb/s
    Width                       : 1 920 pixels
    Height                      : 1 036 pixels
    Display aspect ratio        : 1.85:1
    Frame rate mode             : Constant
    Frame rate                  : 23.976 (24000/1001) FPS
    Color space                 : YUV
    Chroma subsampling          : 4:2:0
    Bit depth                   : 8 bits
    Scan type                   : Progressive
    Bits/(Pixel*Frame)          : 0.073
    Stream size                 : 2.26 GiB (76%)
    Title                       : HD1080p [CinemaniaHDD]
    Writing library             : x264 core 163 r3059 b684ebe0
    Encoding settings           : cabac=1 / ref=4 / deblock=1:-1:-1 / analyse=0x3:0x133 / me=umh / subme=9 / psy=1 / psy_rd=1.00:0.15 / mixed_ref=1 / me_range=16 / chroma_me=1 / trellis=2 / 8x8dct=1 / cqm=0 / deadzone=21,11 / fast_pskip=1 / chroma_qp_offset=-3 / threads=24 / lookahead_threads=2 / sliced_threads=0 / nr=0 / decimate=1 / interlaced=0 / bluray_compat=0 / constrained_intra=0 / bframes=3 / b_pyramid=2 / b_adapt=2 / b_bias=0 / direct=3 / weightb=1 / open_gop=0 / weightp=2 / keyint=240 / keyint_min=24 / scenecut=40 / intra_refresh=0 / rc_lookahead=60 / rc=abr / mbtree=1 / bitrate=3500 / ratetol=1.0 / qcomp=0.60 / qpmin=0 / qpmax=69 / qpstep=4 / vbv_maxrate=62500 / vbv_bufsize=78125 / nal_hrd=none / filler=0 / ip_ratio=1.40 / aq=1:1.00
    Default                     : Yes
    Forced                      : Yes
    Color range                 : Limited
    Color primaries             : BT.709
    Transfer characteristics    : BT.709
    Matrix coefficients         : BT.709

    Audio #1
    ID                          : 2
    Format                      : AC-3
    Format/Info                 : Audio Coding 3
    Commercial name             : Dolby Digital
    Codec ID                    : A_AC3
    Duration                    : 1 h 33 min
    Bit rate mode               : Constant
    Bit rate                    : 640 kb/s
    Channel(s)                  : 6 channels
    Channel layout              : L R C LFE Ls Rs
    Sampling rate               : 48.0 kHz
    Frame rate                  : 31.250 FPS (1536 SPF)
    Compression mode            : Lossy
    Delay relative to video     : -5 ms
    Stream size                 : 426 MiB (14%)
    Title                       : Español Latino [CinemaniaHDD]
    Language                    : Spanish
    Service kind                : Complete Main
    Default                     : Yes
    Forced                      : Yes

    Audio #2
    ID                          : 3
    Format                      : AC-3
    Format/Info                 : Audio Coding 3
    Commercial name             : Dolby Digital
    Codec ID                    : A_AC3
    Duration                    : 1 h 33 min
    Bit rate mode               : Constant
    Bit rate                    : 448 kb/s
    Channel(s)                  : 6 channels
    Channel layout              : L R C LFE Ls Rs
    Sampling rate               : 48.0 kHz
    Frame rate                  : 31.250 FPS (1536 SPF)
    Compression mode            : Lossy
    Delay relative to video     : -5 ms
    Stream size                 : 298 MiB (10%)
    Title                       : Ingles [CinemaniaHDD]
    Language                    : English
    Service kind                : Complete Main
    Default                     : No
    Forced                      : No

    Text #1
    ID                          : 4
    Format                      : UTF-8
    Codec ID                    : S_TEXT/UTF8
    Codec ID/Info               : UTF-8 Plain Text
    Duration                    : 1 h 0 min
    Bit rate                    : 0 b/s
    Count of elements           : 12
    Stream size                 : 239 Bytes (0%)
    Title                       : Forzados-SRT [CinemaniaHDD]
    Language                    : Spanish
    Default                     : Yes
    Forced                      : Yes

    Text #2
    ID                          : 5
    Format                      : UTF-8
    Codec ID                    : S_TEXT/UTF8
    Codec ID/Info               : UTF-8 Plain Text
    Duration                    : 1 h 32 min
    Bit rate                    : 90 b/s
    Count of elements           : 1728
    Stream size                 : 61.3 KiB (0%)
    Title                       : Español-SRT [CinemaniaHDD]
    Language                    : Spanish
    Default                     : No
    Forced                      : No

    Text #3
    ID                          : 6
    Format                      : UTF-8
    Codec ID                    : S_TEXT/UTF8
    Codec ID/Info               : UTF-8 Plain Text
    Duration                    : 1 h 28 min
    Bit rate                    : 107 b/s
    Count of elements           : 2188
    Stream size                 : 69.8 KiB (0%)
    Title                       : Ingles-SRT [CinemaniaHDD]
    Language                    : English
    Default                     : No
    Forced                      : No

    Menu
    00:00:00.000                : :Capítulo 01
    00:03:38.719                : :Capítulo 02
    00:08:04.484                : :Capítulo 03
    00:14:03.843                : :Capítulo 04
    00:18:26.439                : :Capítulo 05
    00:21:53.479                : :Capítulo 06
    00:26:39.640                : :Capítulo 07
    00:28:41.929                : :Capítulo 08
    00:34:50.755                : :Capítulo 09
    00:37:32.584                : :Capítulo 10
    00:43:48.960                : :Capítulo 11
    00:49:27.840                : :Capítulo 12
    00:52:56.965                : :Capítulo 13
    00:56:34.141                : :Capítulo 14
    01:02:59.818                : :Capítulo 15
    01:07:18.910                : :Capítulo 16
    01:10:37.859                : :Capítulo 17
    01:13:10.303                : :Capítulo 18
    01:22:04.545                : :Capítulo 19
    01:26:11.333                : :Capítulo 20

  • Peso: 2.97 GiB

Sinopsis

Descargar Hijos de perra (2023) HD 1080p Latino. Un perro abandonado se une a otros perros callejeros para vengarse de su antiguo dueño.

Ficha técnica

Video trailer de la película

Enlaces de descarga

Rip de Bluray

Descargar Hijos de perra (2023) HD 1080p Latino




Aportes de DPeliculasHDmega la pass es:dpeliculashdmega.org Aportes de CinemaniaHD la pass es:cinemaniahdd.com Aportes recientes:cinemaniahdd.net
Guardado en : Aventura , Comedia , HD 1080p

Películas relacionadas

descargar Hijos de perra (2023) HD 1080p Latino 1080p 1080p gratis, Hijos de perra (2023) HD 1080p Latino 1080p mega 1 link, Hijos de perra (2023) HD 1080p Latino 1080p pelicula completa, descargar Hijos de perra (2023) HD 1080p Latino 1080p gratis en mega.

Hijos de perra (2023) HD 1080p Latino pelicula full hd, Hijos de perra (2023) HD 1080p Latino mega latino, Hijos de perra (2023) HD 1080p Latino 4k latino, Hijos de perra (2023) HD 1080p Latino pelicula completa, Hijos de perra (2023) HD 1080p Latino descargar gratis, descargar Hijos de perra (2023) HD 1080p Latino pelicula latino, Hijos de perra (2023) HD 1080p Latino 1 link mega, Hijos de perra (2023) HD 1080p Latino 1 link google drive, Hijos de perra (2023) HD 1080p Latino hd 1080p latino.
Comentarios 0