×

¿Problemas para descargar con Mozilla, EDGE? Deshabilita la opción "Abrir vinculos en una pestaña nueva" tal como lo muestra ésta imagen.

Hightown (2020) Primera Temporada AMZN WEB-DL 1080p Latino

148 vistas

Información de Hightown (2020) Primera Temporada AMZN WEB-DL 1080p Latino

Datos de la película

  • Calidad: 1080p
  • Audio: Español Latino AC3 5.1 WEB-DL - Ingles AC3 5.1 WEB-DL
  • Subtitulos: Español Latino SRT- FORZADOS SRT
  • Resolución: 1920x1080
  • Formato: MKV
  • Codec: H.264
  • Encoder: cinemaniahdd
  • Mediainfo: Clic para Mostrar Datos Ver
  • Hightown T01E01 AMZN WEB-DL 1080p Latino [CNMNHDD].mkv
    Format                      : Matroska
    Format version              : Version 4
    File size                   : 4.64 GiB
    Duration                    : 56 min 49 s
    Overall bit rate            : 11.7 Mb/s
    Movie name                  : Hightown T01E01 - CinemaniaHDD.Net
    Encoded date                : UTC 2021-10-25 01:12:31
    Writing application         : mkvmerge v56.1.0 ('My Friend') 64-bit
    Writing library             : libebml v1.4.2 + libmatroska v1.6.4

    Video
    ID                          : 1
    Format                      : AVC
    Format/Info                 : Advanced Video Codec
    Format profile              : High@L4
    Format settings             : CABAC / 4 Ref Frames
    Format settings, CABAC      : Yes
    Format settings, Reference  : 4 frames
    Codec ID                    : V_MPEG4/ISO/AVC
    Duration                    : 56 min 49 s
    Bit rate mode               : Constant
    Bit rate                    : 10 000 kb/s
    Width                       : 1 920 pixels
    Height                      : 1 080 pixels
    Display aspect ratio        : 16:9
    Frame rate mode             : Constant
    Frame rate                  : 23.976 (24000/1001) FPS
    Color space                 : YUV
    Chroma subsampling          : 4:2:0
    Bit depth                   : 8 bits
    Scan type                   : Progressive
    Bits/(Pixel*Frame)          : 0.201
    Stream size                 : 3.87 GiB (84%)
    Title                       : CinemaniaHDD
    Default                     : Yes
    Forced                      : No
    Color range                 : Limited
    Color primaries             : BT.709
    Transfer characteristics    : BT.709
    Matrix coefficients         : BT.709

    Audio #1
    ID                          : 2
    Format                      : AC-3
    Format/Info                 : Audio Coding 3
    Commercial name             : Dolby Digital
    Codec ID                    : A_AC3
    Duration                    : 56 min 49 s
    Bit rate mode               : Constant
    Bit rate                    : 640 kb/s
    Channel(s)                  : 6 channels
    Channel layout              : L R C LFE Ls Rs
    Sampling rate               : 48.0 kHz
    Frame rate                  : 31.250 FPS (1536 SPF)
    Compression mode            : Lossy
    Stream size                 : 260 MiB (5%)
    Title                       : Español latino [CinemaniaHDD]
    Language                    : Spanish
    Service kind                : Complete Main
    Default                     : Yes
    Forced                      : No

    Audio #2
    ID                          : 3
    Format                      : E-AC-3
    Format/Info                 : Enhanced AC-3
    Commercial name             : Dolby Digital Plus
    Codec ID                    : A_EAC3
    Duration                    : 56 min 49 s
    Bit rate mode               : Constant
    Bit rate                    : 640 kb/s
    Channel(s)                  : 6 channels
    Channel layout              : L R C LFE Ls Rs
    Sampling rate               : 48.0 kHz
    Frame rate                  : 31.250 FPS (1536 SPF)
    Compression mode            : Lossy
    Stream size                 : 260 MiB (5%)
    Title                       : Español latino / E-AC3 [CinemaniaHDD]
    Language                    : Spanish
    Service kind                : Complete Main
    Default                     : No
    Forced                      : No

    Audio #3
    ID                          : 4
    Format                      : E-AC-3
    Format/Info                 : Enhanced AC-3
    Commercial name             : Dolby Digital Plus
    Codec ID                    : A_EAC3
    Duration                    : 56 min 49 s
    Bit rate mode               : Constant
    Bit rate                    : 640 kb/s
    Channel(s)                  : 6 channels
    Channel layout              : L R C LFE Ls Rs
    Sampling rate               : 48.0 kHz
    Frame rate                  : 31.250 FPS (1536 SPF)
    Compression mode            : Lossy
    Stream size                 : 260 MiB (5%)
    Title                       : Inglés [CinemaniaHDD]
    Language                    : English
    Service kind                : Complete Main
    Default                     : No
    Forced                      : No

    Text #1
    ID                          : 5
    Format                      : UTF-8
    Codec ID                    : S_TEXT/UTF8
    Codec ID/Info               : UTF-8 Plain Text
    Duration                    : 35 min 10 s
    Bit rate                    : 0 b/s
    Count of elements           : 5
    Stream size                 : 145 Bytes (0%)
    Title                       : Forzados [CinemaniaHDD]
    Language                    : Spanish
    Default                     : No
    Forced                      : Yes

    Text #2
    ID                          : 6
    Format                      : UTF-8
    Codec ID                    : S_TEXT/UTF8
    Codec ID/Info               : UTF-8 Plain Text
    Duration                    : 54 min 56 s
    Bit rate                    : 53 b/s
    Count of elements           : 685
    Stream size                 : 21.6 KiB (0%)
    Title                       : Español latino [CinemaniaHDD]
    Language                    : Spanish
    Default                     : No
    Forced                      : No

    Menu
    00:00:00.000                : Opening Credits
    00:01:36.000                : Scene 2
    00:05:37.000                : Scene 3
    00:15:14.000                : Scene 4
    00:23:13.000                : Scene 5
    00:31:37.000                : Scene 6
    00:36:56.000                : Scene 7
    00:49:29.000                : Scene 8
    00:56:37.000                : End Credits, Next On

     

  • Peso: 4.64 GiB Aprox ---- 37 GiB in 8 Chapters.

Sinopsis

En medio del tráfico de drogas en Cape Cod, un cuerpo se lava en tierra y es descubierto por un oficial irreverente del Servicio Nacional de Pesca Marina, Jackie Quiñones, quien está decidida a ayudar a resolver el asesinato, incluso si los policías estatales no la quieren cerca del caso.

Ficha técnica

Video trailer de la película

Enlaces de descarga

Rip de Bluray

Descargar Hightown (2020) Primera Temporada AMZN WEB-DL 1080p Latino




Aportes de DPeliculasHDmega la pass es:dpeliculashdmega.org Aportes de CinemaniaHD la pass es:cinemaniahdd.com
Guardado en : Crimen , Drama , Series

Películas relacionadas

descargar Hightown (2020) Primera Temporada AMZN WEB-DL 1080p Latino 1080p 1080p gratis, Hightown (2020) Primera Temporada AMZN WEB-DL 1080p Latino 1080p mega 1 link, Hightown (2020) Primera Temporada AMZN WEB-DL 1080p Latino 1080p serie completa, descargar Hightown (2020) Primera Temporada AMZN WEB-DL 1080p Latino 1080p gratis en mega.

Hightown (2020) Primera Temporada AMZN WEB-DL 1080p Latino pelicula full hd, Hightown (2020) Primera Temporada AMZN WEB-DL 1080p Latino mega latino, Hightown (2020) Primera Temporada AMZN WEB-DL 1080p Latino 4k latino, Hightown (2020) Primera Temporada AMZN WEB-DL 1080p Latino pelicula completa, Hightown (2020) Primera Temporada AMZN WEB-DL 1080p Latino descargar gratis, descargar Hightown (2020) Primera Temporada AMZN WEB-DL 1080p Latino pelicula latino, Hightown (2020) Primera Temporada AMZN WEB-DL 1080p Latino 1 link mega, Hightown (2020) Primera Temporada AMZN WEB-DL 1080p Latino 1 link google drive, Hightown (2020) Primera Temporada AMZN WEB-DL 1080p Latino hd 1080p latino.
Comentarios 0