×

¿Problemas para descargar con Mozilla, EDGE? Deshabilita la opción "Abrir vinculos en una pestaña nueva" tal como lo muestra ésta imagen.

High Strung: Desafio De Cuerdas (2016) 1080p Latino-CMHDD

51 vistas

Información de High Strung: Desafio De Cuerdas (2016) 1080p Latino-CMHDD

Datos de la película

  • Calidad: 1080p
  • Audio: Español Latino AC3 5.1 WEB-DL - Ingles AC3 5.1 BLURAY
  • Subtitulos: Español Latino SRT - Ingles SRT
  • Resolución: 1920x808p
  • Formato: MKV
  • Codec: H.264
  • Encoder: CinefiloCool
  • Mediainfo: Clic para Mostrar Datos Ver
  • High.Strung.2016.Bluray.1080p.x264.Latino-CC@CMHDD.mkv
    Format                      : Matroska
    Format version              : Version 4
    File size                   : 3.89 GiB
    Duration                    : 1 h 37 min
    Overall bit rate            : 5 745 kb/s
    Movie name                  : High Strung (2016) CinemaniaHDD.Net
    Encoded date                : UTC 2024-03-08 08:07:57
    Writing application         : mkvmerge v56.1.0 ('My Friend') 64-bit
    Writing library             : libebml v1.4.2 + libmatroska v1.6.4
    Attachments                 : CINEMANIAHD.png

    Video
    ID                          : 1
    Format                      : AVC
    Format/Info                 : Advanced Video Codec
    Format profile              : High@L4.1
    Format settings             : CABAC / 5 Ref Frames
    Format settings, CABAC      : Yes
    Format settings, Reference  : 5 frames
    Codec ID                    : V_MPEG4/ISO/AVC
    Duration                    : 1 h 37 min
    Bit rate                    : 4 911 kb/s
    Width                       : 1 920 pixels
    Height                      : 808 pixels
    Display aspect ratio        : 2.40:1
    Frame rate mode             : Constant
    Frame rate                  : 24.000 FPS
    Color space                 : YUV
    Chroma subsampling          : 4:2:0
    Bit depth                   : 8 bits
    Scan type                   : Progressive
    Bits/(Pixel*Frame)          : 0.132
    Stream size                 : 3.33 GiB (85%)
    Title                       : HD1080p [CinemaniaHDD]
    Writing library             : x264 core 148 r2705 3f5ed56
    Encoding settings           : cabac=1 / ref=5 / deblock=1:-1:-1 / analyse=0x3:0x133 / me=umh / subme=7 / psy=1 / psy_rd=1.00:0.15 / mixed_ref=1 / me_range=16 / chroma_me=1 / trellis=1 / 8x8dct=1 / cqm=0 / deadzone=21,11 / fast_pskip=0 / chroma_qp_offset=-3 / threads=8 / lookahead_threads=1 / sliced_threads=0 / nr=0 / decimate=1 / interlaced=0 / bluray_compat=0 / constrained_intra=0 / bframes=3 / b_pyramid=2 / b_adapt=1 / b_bias=0 / direct=1 / weightb=1 / open_gop=0 / weightp=2 / keyint=250 / keyint_min=24 / scenecut=40 / intra_refresh=0 / rc_lookahead=40 / rc=crf / mbtree=1 / crf=20.0 / qcomp=0.60 / qpmin=0 / qpmax=69 / qpstep=4 / ip_ratio=1.40 / aq=1:1.00
    Default                     : Yes
    Forced                      : Yes

    Audio #1
    ID                          : 2
    Format                      : AC-3
    Format/Info                 : Audio Coding 3
    Commercial name             : Dolby Digital
    Codec ID                    : A_AC3
    Duration                    : 1 h 37 min
    Bit rate mode               : Constant
    Bit rate                    : 384 kb/s
    Channel(s)                  : 6 channels
    Channel layout              : L R C LFE Ls Rs
    Sampling rate               : 48.0 kHz
    Frame rate                  : 31.250 FPS (1536 SPF)
    Compression mode            : Lossy
    Stream size                 : 267 MiB (7%)
    Title                       : Español Latino [CinemaniaHDD]
    Language                    : Spanish
    Service kind                : Complete Main
    Default                     : Yes
    Forced                      : Yes

    Audio #2
    ID                          : 3
    Format                      : AC-3
    Format/Info                 : Audio Coding 3
    Commercial name             : Dolby Digital
    Codec ID                    : A_AC3
    Duration                    : 1 h 37 min
    Bit rate mode               : Constant
    Bit rate                    : 448 kb/s
    Channel(s)                  : 6 channels
    Channel layout              : L R C LFE Ls Rs
    Sampling rate               : 48.0 kHz
    Frame rate                  : 31.250 FPS (1536 SPF)
    Compression mode            : Lossy
    Stream size                 : 311 MiB (8%)
    Title                       : Ingles [CinemaniaHDD]
    Language                    : English
    Service kind                : Complete Main
    Default                     : No
    Forced                      : No

    Text #1
    ID                          : 4
    Format                      : UTF-8
    Codec ID                    : S_TEXT/UTF8
    Codec ID/Info               : UTF-8 Plain Text
    Duration                    : 1 h 13 min
    Bit rate                    : 0 b/s
    Count of elements           : 7
    Stream size                 : 240 Bytes (0%)
    Title                       : Forzados-SRT [CinemaniaHDD]
    Language                    : Spanish
    Default                     : Yes
    Forced                      : Yes

    Text #2
    ID                          : 5
    Format                      : UTF-8
    Codec ID                    : S_TEXT/UTF8
    Codec ID/Info               : UTF-8 Plain Text
    Duration                    : 1 h 29 min
    Bit rate                    : 45 b/s
    Count of elements           : 1019
    Stream size                 : 29.9 KiB (0%)
    Title                       : Español-SRT [CinemaniaHDD]
    Language                    : Spanish
    Default                     : No
    Forced                      : No

    Text #3
    ID                          : 6
    Format                      : UTF-8
    Codec ID                    : S_TEXT/UTF8
    Codec ID/Info               : UTF-8 Plain Text
    Duration                    : 1 h 29 min
    Bit rate                    : 44 b/s
    Count of elements           : 989
    Stream size                 : 29.4 KiB (0%)
    Title                       : Ingles-SRT [CinemaniaHDD]
    Language                    : English
    Default                     : No
    Forced                      : No

    Menu
    00:00:00.000                : 00:00:00.000
    00:10:32.083                : 00:10:32.083
    00:21:10.125                : 00:21:10.125
    00:28:31.667                : 00:28:31.667
    00:39:16.250                : 00:39:16.250
    00:45:14.542                : 00:45:14.542
    00:53:56.375                : 00:53:56.375
    01:02:46.042                : 01:02:46.042
    01:11:06.292                : 01:11:06.292
    01:16:58.792                : 01:16:58.792
    01:22:19.583                : 01:22:19.583
    01:31:18.625                : 01:31:18.625

  • Peso: 3.89 GiB

Sinopsis

Descargar High Strung: Desafio De Cuerdas (2016) 1080p Latino-CMHDD. Rudy Adams es una bailarina del Medio Oeste con una beca para estudiar, que disfruta de su primer día viviendo en Nueva York. Johnnie Blackwell es un músico británico que toca en el metro para ganarse la vida. Ella vive en un mundo clásico y disciplinado, para él todo es improvisación e inteligencia callejera. Pero cuando una batalla de hip-hop no sale como esperaban, sus dos realidades colisionarán, haciendo que salten chispas.

Ficha técnica

Video trailer de la película

Enlaces de descarga

Rip de Bluray

Descargar High Strung: Desafio De Cuerdas (2016) 1080p Latino-CMHDD




Aportes de DPeliculasHDmega la pass es:dpeliculashdmega.org Aportes de CinemaniaHD la pass es:cinemaniahdd.com Aportes recientes:cinemaniahdd.net
Guardado en : Drama , HD 1080p , Música , Romance

Películas relacionadas

descargar High Strung: Desafio De Cuerdas (2016) 1080p Latino-CMHDD 1080p 1080p gratis, High Strung: Desafio De Cuerdas (2016) 1080p Latino-CMHDD 1080p mega 1 link, High Strung: Desafio De Cuerdas (2016) 1080p Latino-CMHDD 1080p pelicula completa, descargar High Strung: Desafio De Cuerdas (2016) 1080p Latino-CMHDD 1080p gratis en mega.

High Strung: Desafio De Cuerdas (2016) 1080p Latino-CMHDD pelicula full hd, High Strung: Desafio De Cuerdas (2016) 1080p Latino-CMHDD mega latino, High Strung: Desafio De Cuerdas (2016) 1080p Latino-CMHDD 4k latino, High Strung: Desafio De Cuerdas (2016) 1080p Latino-CMHDD pelicula completa, High Strung: Desafio De Cuerdas (2016) 1080p Latino-CMHDD descargar gratis, descargar High Strung: Desafio De Cuerdas (2016) 1080p Latino-CMHDD pelicula latino, High Strung: Desafio De Cuerdas (2016) 1080p Latino-CMHDD 1 link mega, High Strung: Desafio De Cuerdas (2016) 1080p Latino-CMHDD 1 link google drive, High Strung: Desafio De Cuerdas (2016) 1080p Latino-CMHDD hd 1080p latino.
Comentarios 0