×

¿Problemas para descargar con Mozilla, EDGE? Deshabilita la opción "Abrir vinculos en una pestaña nueva" tal como lo muestra ésta imagen.

High School Musical, El musical: La Serie (2019) Temporada 1 WEB-DL 720p Latino

1.804 vistas

Información de High School Musical, El musical: La Serie (2019) Temporada 1 WEB-DL 720p Latino

Datos de la película

  • Calidad:
  • Audio: Se especifica abajo de la Sinopsis
  • Subtitulos: Español Latino SRT- FORZADOS SRT
  • Resolución: 1280x720
  • Formato: MKV
  • Codec: H.264
  • Encoder: cinemaniahdd
  • Mediainfo: Clic para Mostrar Datos Ver
  • High School Musical, El musical - La Serie T01E01 WEB-DL 720p Latino.mkv
    Format                      : Matroska
    Format version              : Version 4
    File size                   : 1.28 GiB
    Duration                    : 33 min 58 s
    Overall bit rate mode       : Variable
    Overall bit rate            : 5 399 kb/s
    Movie name                  : High School Musical, El musical - La Serie T01E01 - CinemaniaHDD.Net
    Encoded date                : UTC 2019-11-16 03:15:54
    Writing application         : mkvmerge v38.0.0 ('The Silent Type') 64-bit
    Writing library             : libebml v1.3.9 + libmatroska v1.5.2

    Video
    ID                          : 1
    Format                      : AVC
    Format/Info                 : Advanced Video Codec
    Format profile              : High@L3.1
    Format settings             : CABAC / 4 Ref Frames
    Format settings, CABAC      : Yes
    Format settings, ReFrames   : 4 frames
    Codec ID                    : V_MPEG4/ISO/AVC
    Duration                    : 33 min 58 s
    Bit rate mode               : Variable
    Bit rate                    : 4 245 kb/s
    Maximum bit rate            : 6 375 kb/s
    Width                       : 1 280 pixels
    Height                      : 720 pixels
    Display aspect ratio        : 16:9
    Frame rate mode             : Constant
    Frame rate                  : 23.976 (24000/1001) FPS
    Color space                 : YUV
    Chroma subsampling          : 4:2:0
    Bit depth                   : 8 bits
    Scan type                   : Progressive
    Bits/(Pixel*Frame)          : 0.192
    Stream size                 : 1.01 GiB (79%)
    Title                       : CinemaniaHDD
    Language                    : English
    Default                     : Yes
    Forced                      : No
    Color range                 : Limited
    Color primaries             : BT.709
    Transfer characteristics    : BT.709
    Matrix coefficients         : BT.709

    Audio #1
    ID                          : 2
    Format                      : AC-3
    Format/Info                 : Audio Coding 3
    Commercial name             : Dolby Digital
    Codec ID                    : A_AC3
    Duration                    : 33 min 58 s
    Bit rate mode               : Constant
    Bit rate                    : 384 kb/s
    Channel(s)                  : 6 channels
    Channel layout              : L R C LFE Ls Rs
    Sampling rate               : 48.0 kHz
    Frame rate                  : 31.250 FPS (1536 SPF)
    Bit depth                   : 16 bits
    Compression mode            : Lossy
    Stream size                 : 93.3 MiB (7%)
    Title                       : Español latino [CinemaniaHDD]
    Language                    : Spanish
    Service kind                : Complete Main
    Default                     : Yes
    Forced                      : No

    Audio #2
    ID                          : 3
    Format                      : E-AC-3 JOC
    Format/Info                 : Enhanced AC-3 with Joint Object Coding
    Commercial name             : Dolby Digital Plus with Dolby Atmos
    Codec ID                    : A_EAC3
    Duration                    : 33 min 58 s
    Bit rate mode               : Constant
    Bit rate                    : 768 kb/s
    Channel(s)                  : 6 channels
    Channel layout              : L R C LFE Ls Rs
    Sampling rate               : 48.0 kHz
    Frame rate                  : 31.250 FPS (1536 SPF)
    Compression mode            : Lossy
    Stream size                 : 187 MiB (14%)
    Title                       : Inglés [CinemaniaHDD]
    Language                    : English
    Service kind                : Complete Main
    Default                     : No
    Forced                      : No
    Complexity index            : 16
    Number of dynamic objects   : 15
    Bed channel count           : 1 channel
    Bed channel configuration   : LFE

    Text #1
    ID                          : 4
    Format                      : UTF-8
    Codec ID                    : S_TEXT/UTF8
    Codec ID/Info               : UTF-8 Plain Text
    Duration                    : 32 min 7 s
    Bit rate                    : 14 b/s
    Count of elements           : 85
    Stream size                 : 3.40 KiB (0%)
    Title                       : Forzados [CinemaniaHDD]
    Language                    : Spanish
    Default                     : Yes
    Forced                      : Yes

    Text #2
    ID                          : 5
    Format                      : UTF-8
    Codec ID                    : S_TEXT/UTF8
    Codec ID/Info               : UTF-8 Plain Text
    Duration                    : 33 min 47 s
    Bit rate                    : 73 b/s
    Count of elements           : 595
    Stream size                 : 18.3 KiB (0%)
    Title                       : Español latino [CinemaniaHDD]
    Language                    : Spanish
    Default                     : No
    Forced                      : No

    Text #3
    ID                          : 6
    Format                      : UTF-8
    Codec ID                    : S_TEXT/UTF8
    Codec ID/Info               : UTF-8 Plain Text
    Duration                    : 33 min 13 s
    Bit rate                    : 87 b/s
    Count of elements           : 653
    Stream size                 : 21.4 KiB (0%)
    Title                       : Inglés [CinemaniaHDD]
    Language                    : English
    Default                     : No
    Forced                      : No

     

  • Peso: 1.28 GiB C/U --- 3 CPITULOS AGREGADOS

Sinopsis

Un grupo de estudiantes de secundaria audicionará para participar en el espectáculo organizado por el club de teatro.

Español Latino AC3 5.1 WEB-DL Ingles EAC3 5.1 WEB-DL

3 CAPITULO AGREGADO

Ficha técnica

Video trailer de la película

Enlaces de descarga

Rip de Bluray

Descargar High School Musical, El musical: La Serie (2019) Temporada 1 WEB-DL 720p Latino




Aportes de DPeliculasHDmega la pass es:dpeliculashdmega.org Aportes de CinemaniaHD la pass es:cinemaniahdd.com
Guardado en : Comedia , Drama , Familia , Series

Películas relacionadas

descargar High School Musical, El musical: La Serie (2019) Temporada 1 WEB-DL 720p Latino 1080p gratis, High School Musical, El musical: La Serie (2019) Temporada 1 WEB-DL 720p Latino mega 1 link, High School Musical, El musical: La Serie (2019) Temporada 1 WEB-DL 720p Latino serie completa, descargar High School Musical, El musical: La Serie (2019) Temporada 1 WEB-DL 720p Latino gratis en mega.

High School Musical, El musical: La Serie (2019) Temporada 1 WEB-DL 720p Latino pelicula full hd, High School Musical, El musical: La Serie (2019) Temporada 1 WEB-DL 720p Latino mega latino, High School Musical, El musical: La Serie (2019) Temporada 1 WEB-DL 720p Latino 4k latino, High School Musical, El musical: La Serie (2019) Temporada 1 WEB-DL 720p Latino pelicula completa, High School Musical, El musical: La Serie (2019) Temporada 1 WEB-DL 720p Latino descargar gratis, descargar High School Musical, El musical: La Serie (2019) Temporada 1 WEB-DL 720p Latino pelicula latino, High School Musical, El musical: La Serie (2019) Temporada 1 WEB-DL 720p Latino 1 link mega, High School Musical, El musical: La Serie (2019) Temporada 1 WEB-DL 720p Latino 1 link google drive, High School Musical, El musical: La Serie (2019) Temporada 1 WEB-DL 720p Latino hd 1080p latino.
Comentarios 3
  • Juan - 22 noviembre, 2019

    Buenas, ¿cuándo suben el cápitulo 3 de High School Musical: El musical: La serie?

    • CinemaniaHDD - 22 noviembre, 2019

      Hola, No sale aun el video en torrents.

  • Joseee_ET - 16 noviembre, 2019

    Muchas gracias por el aporte!