High Resolution (2018) WEB-DL 1080p Español Latino

841 vistas
1 estrella2 estrellas3 estrellas4 estrellas5 estrellas (Ninguna valoración todavía)
Cargando…

Información de High Resolution (2018) WEB-DL 1080p Español Latino

Datos de la película

  • Calidad: WEBDL
  • Audio: Español Latino AC3 2.0 DVD - Ingles AC3 5.1 iTunes
  • Subtitulos: No
  • Resolución: 1920x800
  • Formato: MKV
  • Codec: H.264
  • Encoder: FGT
  • Mediainfo: Clic para Mostrar Datos Ver
  • High.Resolution.2018.1080p.AMZN.WEB-DL.Latino.mkv
    Format                      : Matroska
    Format version              : Version 4
    File size                   : 4.54 GiB
    Duration                    : 1 h 36 min
    Overall bit rate            : 6 743 kb/s
    Movie name                  : CinemaniaHDD.net
    Encoded date                : UTC 2019-01-05 21:28:22
    Writing application         : mkvmerge v29.0.0 ('Like It Or Not') 64-bit
    Writing library             : libebml v1.3.6 + libmatroska v1.4.9

    Video
    ID                          : 1
    Format                      : AVC
    Format/Info                 : Advanced Video Codec
    Format profile              : [email protected]
    Format settings             : CABAC / 4 Ref Frames
    Format settings, CABAC      : Yes
    Format settings, ReFrames   : 4 frames
    Codec ID                    : V_MPEG4/ISO/AVC
    Duration                    : 1 h 36 min
    Bit rate                    : 5 845 kb/s
    Width                       : 1 920 pixels
    Height                      : 800 pixels
    Display aspect ratio        : 2.40:1
    Frame rate mode             : Constant
    Frame rate                  : 23.976 (24000/1001) FPS
    Color space                 : YUV
    Chroma subsampling          : 4:2:0
    Bit depth                   : 8 bits
    Scan type                   : Progressive
    Bits/(Pixel*Frame)          : 0.159
    Stream size                 : 3.93 GiB (87%)
    Default                     : Yes
    Forced                      : No
    Color range                 : Limited
    Color primaries             : BT.709
    Transfer characteristics    : BT.709
    Matrix coefficients         : BT.709

    Audio #1
    ID                          : 2
    Format                      : AC-3
    Format/Info                 : Audio Coding 3
    Commercial name             : Dolby Digital
    Codec ID                    : A_AC3
    Duration                    : 1 h 36 min
    Bit rate mode               : Constant
    Bit rate                    : 256 kb/s
    Channel(s)                  : 2 channels
    Channel layout              : L R
    Sampling rate               : 48.0 kHz
    Frame rate                  : 31.250 FPS (1536 SPF)
    Bit depth                   : 16 bits
    Compression mode            : Lossy
    Stream size                 : 176 MiB (4%)
    Language                    : Spanish
    Service kind                : Complete Main
    Default                     : Yes
    Forced                      : No

    Audio #2
    ID                          : 3
    Format                      : E-AC-3
    Format/Info                 : Enhanced AC-3
    Commercial name             : Dolby Digital Plus
    Codec ID                    : A_EAC3
    Duration                    : 1 h 36 min
    Bit rate mode               : Constant
    Bit rate                    : 640 kb/s
    Channel(s)                  : 6 channels
    Channel layout              : L R C LFE Ls Rs
    Sampling rate               : 48.0 kHz
    Frame rate                  : 31.250 FPS (1536 SPF)
    Compression mode            : Lossy
    Stream size                 : 441 MiB (9%)
    Language                    : English
    Service kind                : Complete Main
    Default                     : No
    Forced                      : No

    Text
    ID                          : 4
    Format                      : UTF-8
    Codec ID                    : S_TEXT/UTF8
    Codec ID/Info               : UTF-8 Plain Text
    Duration                    : 1 h 31 min
    Bit rate                    : 53 b/s
    Count of elements           : 1180
    Stream size                 : 35.6 KiB (0%)
    Title                       : SDH
    Language                    : English
    Default                     : No
    Forced                      : No

  • Peso: 4.54 GiB

Sinopsis

Una adaptación de la amada novela de culto de Tao Lin “Taipei”. Cuando una relación se derrumba, otra florece para Erin, barrida en el mundo de Paul Chen, un autor misterioso y carismático. Cuando él propone documentar todos los aspectos de su noviazgo en un “documental” filmado en una computadora portátil épica, la pareja entra en un mal romance performativo, alimentado por sustancias y noches de insomnio.

Ficha técnica

Video trailer de la película

Enlaces de descarga

Rip de Bluray

Descargar High Resolution (2018) WEB-DL 1080p Español Latino




Aportes de DPeliculasHDmega la pass es:dpeliculashdmega.org Aportes de CinemaniaHD la pass es:cinemaniahdd.com
Guardado en : Drama , Romance

Películas relacionadas

  • The Punisher (2019) Temporada 2 NF 1080p Latino

    2017
    The Punisher (2019) Temporada 2 NF 1080p Latino

    5.0 0h 53m 2017

    Por ahora, Netflix no ha revelado el contenido de la temporada 2 de "The Punisher", ya que lo único...

    Director: Steve Lightfoot

    Género: Action & Adventure

    Actores: Josh Stewart

  • La buena esposa (2017) Web-DL 1080p Latino

    2018
    La buena esposa (2017) Web-DL 1080p Latino

    0.0 1h 40m 2018

    Descargar La buena esposa (2017) Web-DL 1080p Latino, Mega, Google Drive, Torrent. Joan Castleman (Glenn...

    Director: Björn Runge

    Género: Drama

    Actores: Twinnie Lee Moore

  • Peloton (1986) Full 1080p Latino

    1986
    Peloton (1986) Full 1080p Latino

    0.0 2h 0m 1986

    Descargar Peloton (1986) Full 1080p Latino, Mega, Google Drive, Torrent. Chris Taylor es un ingenuo joven...

    Director: Tim Minear

    Género: Acción

    Actores: Willem Dafoe

  • Boy Erased (2018) HD 1080p Latino

    2018
    Boy Erased (2018) HD 1080p Latino

    0.0 1h 54m 2018

    Descargar Boy Erased (2018) HD 1080p Latino, Mega, Google Drive, Torrent. La historia se centra en el...

    Director: Joel Edgerton

    Género: Drama

    Actores: Xavier Dolan

  • Indivisible (2018) HD Español Latino

    2018
    Indivisible (2018) HD Español Latino

    0.0 2h 0m 2018

    'Indivisible' narra la extraordinaria historia real del capellán del ejército Darren Turner y su esposa...

    Director: David G. Evans

    Género: Bélica

    Actores: Tia Mowry

Comentarios 0