×

¿Problemas para descargar con Mozilla, EDGE? Deshabilita la opción "Abrir vinculos en una pestaña nueva" tal como lo muestra ésta imagen.

High Crimes (2002) REMUX 1080p Latino – CMHDD

318 vistas

Información de High Crimes (2002) REMUX 1080p Latino – CMHDD

Datos de la película

  • Calidad: Full 1080p
  • Audio: Español Latino AC3 5.1 BLURAY - Ingles DTS 5.1 BLURAY
  • Subtitulos: Español Latino SRT- FORZADOS SRT
  • Resolución: 1920x1080p
  • Formato: MKV
  • Codec: H.264
  • Encoder: Dracarys
  • Mediainfo: Clic para Mostrar Datos Ver
  • Format                      : Matroska
    Format version              : Version 4
    File size                   : 28.9 GiB
    Duration                    : 1 h 54 min
    Overall bit rate mode       : Variable
    Overall bit rate            : 36.1 Mb/s
    Movie name                  : High Crimes (2002) REMUX 1080p Latino - CMHDD
    Encoded date                : UTC 2020-10-10 18:12:29
    Writing application         : mkvmerge v51.0.0 ('I Wish') 64-bit
    Writing library             : libebml v1.4.0 + libmatroska v1.6.2

    Video
    ID                          : 1
    Format                      : AVC
    Format/Info                 : Advanced Video Codec
    Format profile              : High@L4.1
    Format settings             : CABAC / 4 Ref Frames
    Format settings, CABAC      : Yes
    Format settings, Reference  : 4 frames
    Codec ID                    : V_MPEG4/ISO/AVC
    Duration                    : 1 h 54 min
    Bit rate mode               : Variable
    Bit rate                    : 31.8 Mb/s
    Maximum bit rate            : 34.5 Mb/s
    Width                       : 1 920 pixels
    Height                      : 1 080 pixels
    Display aspect ratio        : 16:9
    Frame rate mode             : Constant
    Frame rate                  : 23.976 (24000/1001) FPS
    Color space                 : YUV
    Chroma subsampling          : 4:2:0
    Bit depth                   : 8 bits
    Scan type                   : Progressive
    Bits/(Pixel*Frame)          : 0.639
    Stream size                 : 25.5 GiB (88%)
    Default                     : Yes
    Forced                      : No
    Color range                 : Limited
    Color primaries             : BT.709
    Transfer characteristics    : BT.709
    Matrix coefficients         : BT.709

    Audio #1
    ID                          : 2
    Format                      : AC-3
    Format/Info                 : Audio Coding 3
    Commercial name             : Dolby Digital
    Codec ID                    : A_AC3
    Duration                    : 1 h 54 min
    Bit rate mode               : Constant
    Bit rate                    : 448 kb/s
    Channel(s)                  : 6 channels
    Channel layout              : L R C LFE Ls Rs
    Sampling rate               : 48.0 kHz
    Frame rate                  : 31.250 FPS (1536 SPF)
    Compression mode            : Lossy
    Stream size                 : 367 MiB (1%)
    Language                    : Spanish
    Service kind                : Complete Main
    Default                     : Yes
    Forced                      : No

    Audio #2
    ID                          : 3
    Format                      : DTS XLL
    Format/Info                 : Digital Theater Systems
    Commercial name             : DTS-HD Master Audio
    Codec ID                    : A_DTS
    Duration                    : 1 h 54 min
    Bit rate mode               : Variable
    Bit rate                    : 3 803 kb/s
    Channel(s)                  : 6 channels
    Channel layout              : C L R Ls Rs LFE
    Sampling rate               : 48.0 kHz
    Frame rate                  : 93.750 FPS (512 SPF)
    Bit depth                   : 24 bits
    Compression mode            : Lossless
    Stream size                 : 3.04 GiB (11%)
    Language                    : English
    Default                     : No
    Forced                      : No

    Text #1
    ID                          : 4
    Format                      : PGS
    Muxing mode                 : zlib
    Codec ID                    : S_HDMV/PGS
    Codec ID/Info               : Picture based subtitle format used on BDs/HD-DVDs
    Duration                    : 1 h 47 min
    Bit rate                    : 36.0 kb/s
    Count of elements           : 2534
    Stream size                 : 27.7 MiB (0%)
    Language                    : Spanish
    Default                     : No
    Forced                      : No

    Text #2
    ID                          : 5
    Format                      : UTF-8
    Codec ID                    : S_TEXT/UTF8
    Codec ID/Info               : UTF-8 Plain Text
    Duration                    : 1 h 47 min
    Bit rate                    : 57 b/s
    Count of elements           : 1267
    Stream size                 : 45.2 KiB (0%)
    Language                    : Spanish
    Default                     : No
    Forced                      : No

    Text #3
    ID                          : 6
    Format                      : UTF-8
    Codec ID                    : S_TEXT/UTF8
    Codec ID/Info               : UTF-8 Plain Text
    Duration                    : 1 h 37 min
    Bit rate                    : 0 b/s
    Count of elements           : 9
    Stream size                 : 252 Bytes (0%)
    Language                    : Spanish
    Default                     : Yes
    Forced                      : No

  • Peso: 28.9 GiB

Sinopsis

Claire Kubik (Ashley Judd) es una dinámica abogada de éxito, casada con un contratista, Tom Kubik (Jim Caviziel). Ambos viven en la idílica Marin County, y están muy enamorados, tanto que piensa en ampliar la familia. Una noche, unos ladrones entran en su casa, y a partir de ese momento se suceden una serie de extraños hechos que romperán su vida en pedazos. Poco después del robo, les abordan unos agentes del FBI, y arrestan a Tom en plena calle ante la mirada de Claire. Le acusan de haber asesinado a sangre fría, bajo su verdadero nombre, Ronald Chapman, y su verdadera identidad, militar de operaciones especiales, a nueve civiles en El Salvador en el transcurso de una operación.

Ficha técnica

Video trailer de la película

Enlaces de descarga

Rip de Bluray

Descargar High Crimes (2002) REMUX 1080p Latino – CMHDD


Aportes de DPeliculasHDmega la pass es:dpeliculashdmega.org Aportes de CinemaniaHD la pass es:cinemaniahdd.com
Guardado en : Crimen , Drama , Misterio , Suspenso

Películas relacionadas

descargar High Crimes (2002) REMUX 1080p Latino – CMHDD Full 1080p 1080p gratis, High Crimes (2002) REMUX 1080p Latino – CMHDD Full 1080p mega 1 link, High Crimes (2002) REMUX 1080p Latino – CMHDD Full 1080p pelicula completa, descargar High Crimes (2002) REMUX 1080p Latino – CMHDD Full 1080p gratis en mega.

High Crimes (2002) REMUX 1080p Latino – CMHDD pelicula full hd, High Crimes (2002) REMUX 1080p Latino – CMHDD mega latino, High Crimes (2002) REMUX 1080p Latino – CMHDD 4k latino, High Crimes (2002) REMUX 1080p Latino – CMHDD pelicula completa, High Crimes (2002) REMUX 1080p Latino – CMHDD descargar gratis, descargar High Crimes (2002) REMUX 1080p Latino – CMHDD pelicula latino, High Crimes (2002) REMUX 1080p Latino – CMHDD 1 link mega, High Crimes (2002) REMUX 1080p Latino – CMHDD 1 link google drive, High Crimes (2002) REMUX 1080p Latino – CMHDD hd 1080p latino.
Comentarios 0