×

¿Problemas para descargar con Mozilla, EDGE? Deshabilita la opción "Abrir vinculos en una pestaña nueva" tal como lo muestra ésta imagen.

Hidden: FirstBorn (2019) Primera Temporada DTVGO WEB-DL 1080p Latino

425 vistas

Información de Hidden: FirstBorn (2019) Primera Temporada DTVGO WEB-DL 1080p Latino

Datos de la película

  • Calidad: 1080p
  • Audio: Se especifica abajo de la Sinopsis
  • Subtitulos: Español Latino SRT
  • Resolución: 1920x1080
  • Formato: MKV
  • Codec: H.264
  • Encoder: cinemaniahdd
  • Mediainfo: Clic para Mostrar Datos Ver
  • Hidden First Born T01E01 DTVGO WEB-DL 1080p Latino [CNMNHDD].mkv
    Format                      : Matroska
    Format version              : Version 4
    File size                   : 2.03 GiB
    Duration                    : 46 min 31 s
    Overall bit rate            : 6 239 kb/s
    Movie name                  : Hidden First Born T01E01 - Episode 01 [CNMNHDD]
    Encoded date                : UTC 2022-06-27 23:29:25
    Writing application         : mkvmerge v56.1.0 ('My Friend') 64-bit
    Writing library             : libebml v1.4.2 + libmatroska v1.6.4

    Video
    ID                          : 1
    Format                      : AVC
    Format/Info                 : Advanced Video Codec
    Format profile              : High@L4
    Format settings             : 1 Ref Frames
    Format settings, CABAC      : No
    Format settings, Reference  : 1 frame
    Format settings, GOP        : M=1, N=30
    Codec ID                    : V_MPEG4/ISO/AVC
    Duration                    : 46 min 31 s
    Bit rate mode               : Constant
    Bit rate                    : 6 000 kb/s
    Width                       : 1 920 pixels
    Height                      : 1 080 pixels
    Display aspect ratio        : 16:9
    Frame rate mode             : Constant
    Frame rate                  : 29.970 (30000/1001) FPS
    Color space                 : YUV
    Chroma subsampling          : 4:2:0
    Bit depth                   : 8 bits
    Scan type                   : Progressive
    Bits/(Pixel*Frame)          : 0.097
    Stream size                 : 1.94 GiB (96%)
    Title                       : CinemaniaHDD
    Default                     : Yes
    Forced                      : No
    Color range                 : Limited
    Color primaries             : BT.601 NTSC
    Transfer characteristics    : BT.601
    Matrix coefficients         : BT.601

    Audio #1
    ID                          : 2
    Format                      : AAC LC
    Format/Info                 : Advanced Audio Codec Low Complexity
    Codec ID                    : A_AAC-2
    Duration                    : 46 min 31 s
    Bit rate                    : 125 kb/s
    Channel(s)                  : 2 channels
    Channel layout              : L R
    Sampling rate               : 48.0 kHz
    Frame rate                  : 46.875 FPS (1024 SPF)
    Compression mode            : Lossy
    Stream size                 : 41.7 MiB (2%)
    Title                       : Español latino [CinemaniaHDD]
    Language                    : Spanish
    Default                     : Yes
    Forced                      : No

    Audio #2
    ID                          : 3
    Format                      : AAC LC
    Format/Info                 : Advanced Audio Codec Low Complexity
    Codec ID                    : A_AAC-2
    Duration                    : 46 min 31 s
    Bit rate                    : 125 kb/s
    Channel(s)                  : 2 channels
    Channel layout              : L R
    Sampling rate               : 48.0 kHz
    Frame rate                  : 46.875 FPS (1024 SPF)
    Compression mode            : Lossy
    Stream size                 : 41.7 MiB (2%)
    Title                       : Sueco [CinemaniaHDD]
    Language                    : Swedish
    Default                     : No
    Forced                      : No

    Text
    ID                          : 4
    Format                      : UTF-8
    Codec ID                    : S_TEXT/UTF8
    Codec ID/Info               : UTF-8 Plain Text
    Duration                    : 43 min 52 s
    Bit rate                    : 25 b/s
    Count of elements           : 307
    Stream size                 : 8.19 KiB (0%)
    Title                       : Español latino [CinemaniaHDD]
    Language                    : Spanish
    Default                     : No
    Forced                      : No

     

  • Peso: 2.03 GiB Aprox ---- 16 GiB in 8 Chapters.

Sinopsis

Nada es lo que parece en «Hidden», donde secretos oscuros, identidades insospechadas y fuerzas sobrenaturales convergen en el cautivador telón de fondo de la Estocolmo moderna.

Español Latino AAC 2.0 WEB-DL – Sueco AAC 2.0 WEB-DL

Ficha técnica

Video trailer de la película

Enlaces de descarga

Rip de Bluray

Descargar Hidden: FirstBorn (2019) Primera Temporada DTVGO WEB-DL 1080p Latino




Aportes de DPeliculasHDmega la pass es:dpeliculashdmega.org Aportes de CinemaniaHD la pass es:cinemaniahdd.com
Guardado en : Action & Adventure , Series

Películas relacionadas

Hidden: FirstBorn (2019) Primera Temporada DTVGO WEB-DL 1080p Latino pelicula full hd, Hidden: FirstBorn (2019) Primera Temporada DTVGO WEB-DL 1080p Latino mega latino, Hidden: FirstBorn (2019) Primera Temporada DTVGO WEB-DL 1080p Latino 4k latino, Hidden: FirstBorn (2019) Primera Temporada DTVGO WEB-DL 1080p Latino pelicula completa, Hidden: FirstBorn (2019) Primera Temporada DTVGO WEB-DL 1080p Latino descargar gratis, descargar Hidden: FirstBorn (2019) Primera Temporada DTVGO WEB-DL 1080p Latino pelicula latino, Hidden: FirstBorn (2019) Primera Temporada DTVGO WEB-DL 1080p Latino 1 link mega, Hidden: FirstBorn (2019) Primera Temporada DTVGO WEB-DL 1080p Latino 1 link google drive, Hidden: FirstBorn (2019) Primera Temporada DTVGO WEB-DL 1080p Latino hd 1080p latino.
Comentarios 0