×

¿Problemas para descargar con Mozilla, EDGE? Deshabilita la opción "Abrir vinculos en una pestaña nueva" tal como lo muestra ésta imagen.

He’s Just Not That Into You (2009) REMUX 1080p Latino – CMHDD

214 vistas

Información de He’s Just Not That Into You (2009) REMUX 1080p Latino – CMHDD

Datos de la película

  • Calidad: Full 1080p
  • Audio: Se especifica abajo de la Sinopsis
  • Subtitulos: Español Latino SRT
  • Resolución: 1920x1080p
  • Formato: MKV
  • Codec: H.264
  • Encoder: Dracarys
  • Mediainfo: Clic para Mostrar Datos Ver
  • Format                      : Matroska
    Format version              : Version 4
    File size                   : 14.5 GiB
    Duration                    : 2 h 9 min
    Overall bit rate mode       : Variable
    Overall bit rate            : 16.0 Mb/s
    Movie name                  : He's Just Not That Into You (2009) REMUX 1080p Latino - CMHDD
    Encoded date                : UTC 2021-08-08 19:53:11
    Writing application         : mkvmerge v56.1.0 ('My Friend') 64-bit
    Writing library             : libebml v1.4.2 + libmatroska v1.6.4
    Cover                       : Yes
    Attachments                 : cover.jpg

    Video
    ID                          : 1
    ID in the original source m : 4113 (0x1011)
    Format                      : VC-1
    Format profile              : Advanced@L3
    Codec ID                    : V_MS/VFW/FOURCC / WVC1
    Codec ID/Hint               : Microsoft
    Duration                    : 2 h 9 min
    Bit rate                    : 14.4 Mb/s
    Width                       : 1 920 pixels
    Height                      : 1 080 pixels
    Display aspect ratio        : 16:9
    Frame rate mode             : Constant
    Frame rate                  : 23.976 (24000/1001) FPS
    Color space                 : YUV
    Chroma subsampling          : 4:2:0
    Bit depth                   : 8 bits
    Scan type                   : Progressive
    Compression mode            : Lossy
    Bits/(Pixel*Frame)          : 0.290
    Stream size                 : 13.0 GiB (90%)
    Default                     : Yes
    Forced                      : No
    Original source medium      : Blu-ray

    Audio #1
    ID                          : 2
    ID in the original source m : 4352 (0x1100)
    Format                      : MLP FBA
    Format/Info                 : Meridian Lossless Packing FBA
    Commercial name             : Dolby TrueHD
    Codec ID                    : A_TRUEHD
    Duration                    : 2 h 9 min
    Bit rate mode               : Variable
    Bit rate                    : 1 332 kb/s
    Maximum bit rate            : 2 163 kb/s
    Channel(s)                  : 6 channels
    Channel layout              : L R C LFE Ls Rs
    Sampling rate               : 48.0 kHz
    Frame rate                  : 1 200.000 FPS (40 SPF)
    Compression mode            : Lossless
    Stream size                 : 1.20 GiB (8%)
    Language                    : English
    Default                     : No
    Forced                      : No
    Original source medium      : Blu-ray

    Audio #2
    ID                          : 3
    Format                      : AC-3
    Format/Info                 : Audio Coding 3
    Codec ID                    : A_AC3
    Duration                    : 2 h 5 min
    Bit rate                    : 224 kb/s
    Channel(s)                  : 2 channels
    Sampling rate               : 44.1 kHz
    Frame rate                  : 28.711 FPS (1536 SPF)
    Compression mode            : Lossy
    Stream size                 : 200 MiB (1%)
    Language                    : Spanish
    Default                     : Yes
    Forced                      : No

    Text
    ID                          : 4
    Format                      : UTF-8
    Codec ID                    : S_TEXT/UTF8
    Codec ID/Info               : UTF-8 Plain Text
    Duration                    : 2 h 1 min
    Bit rate                    : 68 b/s
    Count of elements           : 1998
    Stream size                 : 61.2 KiB (0%)
    Language                    : Spanish
    Default                     : No
    Forced                      : No

    Menu
    00:00:00.000                : Chapter 01
    00:02:50.545                : Chapter 02
    00:09:07.213                : Chapter 03
    00:12:38.841                : Chapter 04
    00:16:47.548                : Chapter 05
    00:22:12.914                : Chapter 06
    00:26:44.603                : Chapter 07
    00:31:02.485                : Chapter 08
    00:33:55.116                : Chapter 09
    00:37:41.676                : Chapter 10
    00:41:37.995                : Chapter 11
    00:46:09.349                : Chapter 12
    00:49:20.999                : Chapter 13
    00:53:44.763                : Chapter 14
    00:57:45.253                : Chapter 15
    01:01:06.120                : Chapter 16
    01:05:33.888                : Chapter 17
    01:09:38.632                : Chapter 18
    01:14:25.002                : Chapter 19
    01:17:32.731                : Chapter 20
    01:20:55.767                : Chapter 21
    01:27:38.836                : Chapter 22
    01:31:03.916                : Chapter 23
    01:35:56.500                : Chapter 24
    01:39:15.407                : Chapter 25
    01:44:46.863                : Chapter 26
    01:48:50.565                : Chapter 27
    01:52:15.687                : Chapter 28
    01:55:36.220                : Chapter 29
    01:58:41.948                : Chapter 30
    02:00:44.195                : Chapter 31

  • Peso: 14.5 GiB

Sinopsis

Ambientada en Baltimore. Historias cruzadas sobre el amor y el comportamiento humano: una mujer se siente confusa en una sociedad más obsesionada por la tecnología que por el contacto humano, otra mujer se ve atrapada en un rutinario matrimonio, un hombre intenta conquistar a una mujer que tiene un amante, una joven vive obsesionada intentando propiciar encuentros accidentales con el hombre de sus sueños.

 

Latino: AC3 2.0  –  Ingles: TrueHD 5.1

Ficha técnica

  • Titulo original: He's Just Not That Into You
  • Fecha de lanzamiento: 06-02-2009 (Germany, Netherlands, United States of America)
  • Director: Anne Rapp, Ken Kwapis
  • Género: Comedia, Drama, Romance

Video trailer de la película

Enlaces de descarga

Rip de Bluray

Descargar He’s Just Not That Into You (2009) REMUX 1080p Latino – CMHDD


Aportes de DPeliculasHDmega la pass es:dpeliculashdmega.org Aportes de CinemaniaHD la pass es:cinemaniahdd.com
Guardado en : Comedia , Drama , Romance

Películas relacionadas

descargar He’s Just Not That Into You (2009) REMUX 1080p Latino – CMHDD Full 1080p 1080p gratis, He’s Just Not That Into You (2009) REMUX 1080p Latino – CMHDD Full 1080p mega 1 link, He’s Just Not That Into You (2009) REMUX 1080p Latino – CMHDD Full 1080p pelicula completa, descargar He’s Just Not That Into You (2009) REMUX 1080p Latino – CMHDD Full 1080p gratis en mega.

He’s Just Not That Into You (2009) REMUX 1080p Latino – CMHDD pelicula full hd, He’s Just Not That Into You (2009) REMUX 1080p Latino – CMHDD mega latino, He’s Just Not That Into You (2009) REMUX 1080p Latino – CMHDD 4k latino, He’s Just Not That Into You (2009) REMUX 1080p Latino – CMHDD pelicula completa, He’s Just Not That Into You (2009) REMUX 1080p Latino – CMHDD descargar gratis, descargar He’s Just Not That Into You (2009) REMUX 1080p Latino – CMHDD pelicula latino, He’s Just Not That Into You (2009) REMUX 1080p Latino – CMHDD 1 link mega, He’s Just Not That Into You (2009) REMUX 1080p Latino – CMHDD 1 link google drive, He’s Just Not That Into You (2009) REMUX 1080p Latino – CMHDD hd 1080p latino.
Comentarios 0