×

¿Problemas para descargar con Mozilla, EDGE? Deshabilita la opción "Abrir vinculos en una pestaña nueva" tal como lo muestra ésta imagen.

Héroes de guerra (2019) HD 1080p Latino

466 vistas

Información de Héroes de guerra (2019) HD 1080p Latino

Datos de la película

  • Calidad: 1080p
  • Audio: Se especifica abajo de la Sinopsis
  • Subtitulos: Español Latino SRT- FORZADOS SRT
  • Resolución: 1920x808p
  • Formato: MKV
  • Codec: H.264
  • Encoder: Melkor
  • Mediainfo: Clic para Mostrar Datos Ver
  • Heroes De Guerra (2019) HD 1080p Latino.mkv
    Format                      : Matroska
    Format version              : Version 4
    File size                   : 3.88 GiB
    Duration                    : 2 h 8 min
    Overall bit rate            : 4 324 kb/s
    Movie name                  : The Balkan Line (2019) [Balkanskiy rubezh] CinemaniaHDD.Net
    Encoded date                : UTC 2022-06-18 23:58:24
    Writing application         : mkvmerge v56.1.0 ('My Friend') 64-bit
    Writing library             : libebml v1.4.2 + libmatroska v1.6.4
    Attachments                 : CINEMANIAHD.png

    Video
    ID                          : 1
    Format                      : AVC
    Format/Info                 : Advanced Video Codec
    Format profile              : High@L4.1
    Format settings             : CABAC / 5 Ref Frames
    Format settings, CABAC      : Yes
    Format settings, Reference  : 5 frames
    Codec ID                    : V_MPEG4/ISO/AVC
    Duration                    : 2 h 8 min
    Bit rate                    : 3 500 kb/s
    Width                       : 1 920 pixels
    Height                      : 808 pixels
    Display aspect ratio        : 2.40:1
    Frame rate mode             : Constant
    Frame rate                  : 24.000 FPS
    Color space                 : YUV
    Chroma subsampling          : 4:2:0
    Bit depth                   : 8 bits
    Scan type                   : Progressive
    Bits/(Pixel*Frame)          : 0.094
    Stream size                 : 3.08 GiB (79%)
    Title                       : HD1080p [CinemaniaHDD]
    Writing library             : x264 core 163 r3059 b684ebe0
    Encoding settings           : cabac=1 / ref=5 / deblock=1:-1:-1 / analyse=0x3:0x133 / me=umh / subme=9 / psy=1 / psy_rd=1.00:0.15 / mixed_ref=1 / me_range=16 / chroma_me=1 / trellis=2 / 8x8dct=1 / cqm=0 / deadzone=21,11 / fast_pskip=1 / chroma_qp_offset=-3 / threads=24 / lookahead_threads=2 / sliced_threads=0 / nr=0 / decimate=1 / interlaced=0 / bluray_compat=0 / constrained_intra=0 / bframes=3 / b_pyramid=2 / b_adapt=2 / b_bias=0 / direct=3 / weightb=1 / open_gop=0 / weightp=2 / keyint=240 / keyint_min=24 / scenecut=40 / intra_refresh=0 / rc_lookahead=60 / rc=abr / mbtree=1 / bitrate=3500 / ratetol=1.0 / qcomp=0.60 / qpmin=0 / qpmax=69 / qpstep=4 / vbv_maxrate=62500 / vbv_bufsize=78125 / nal_hrd=none / filler=0 / ip_ratio=1.40 / aq=1:1.00
    Default                     : Yes
    Forced                      : Yes
    Color range                 : Limited
    Color primaries             : BT.709
    Transfer characteristics    : BT.709
    Matrix coefficients         : BT.709

    Audio #1
    ID                          : 2
    Format                      : AC-3
    Format/Info                 : Audio Coding 3
    Commercial name             : Dolby Digital
    Codec ID                    : A_AC3
    Duration                    : 2 h 8 min
    Bit rate mode               : Constant
    Bit rate                    : 448 kb/s
    Channel(s)                  : 6 channels
    Channel layout              : L R C LFE Ls Rs
    Sampling rate               : 48.0 kHz
    Frame rate                  : 31.250 FPS (1536 SPF)
    Compression mode            : Lossy
    Delay relative to video     : -5 ms
    Stream size                 : 412 MiB (10%)
    Title                       : Español Latino [CinemaniaHDD]
    Language                    : Spanish
    Service kind                : Complete Main
    Default                     : Yes
    Forced                      : Yes

    Audio #2
    ID                          : 3
    Format                      : AC-3
    Format/Info                 : Audio Coding 3
    Commercial name             : Dolby Digital
    Codec ID                    : A_AC3
    Duration                    : 2 h 8 min
    Bit rate mode               : Constant
    Bit rate                    : 448 kb/s
    Channel(s)                  : 6 channels
    Channel layout              : L R C LFE Ls Rs
    Sampling rate               : 48.0 kHz
    Frame rate                  : 31.250 FPS (1536 SPF)
    Compression mode            : Lossy
    Delay relative to video     : -5 ms
    Stream size                 : 412 MiB (10%)
    Title                       : Ruso [CinemaniaHDD]
    Language                    : Russian
    Service kind                : Complete Main
    Default                     : No
    Forced                      : No

    Text #1
    ID                          : 4
    Format                      : UTF-8
    Codec ID                    : S_TEXT/UTF8
    Codec ID/Info               : UTF-8 Plain Text
    Duration                    : 2 h 2 min
    Bit rate                    : 1 b/s
    Count of elements           : 25
    Stream size                 : 929 Bytes (0%)
    Title                       : Forzados-SRT [CinemaniaHDD]
    Language                    : Spanish
    Default                     : Yes
    Forced                      : Yes

    Text #2
    ID                          : 5
    Format                      : UTF-8
    Codec ID                    : S_TEXT/UTF8
    Codec ID/Info               : UTF-8 Plain Text
    Duration                    : 2 h 3 min
    Bit rate                    : 37 b/s
    Count of elements           : 1313
    Stream size                 : 34.4 KiB (0%)
    Title                       : Español-SRT [CinemaniaHDD]
    Language                    : Spanish
    Default                     : No
    Forced                      : No

    Menu
    00:00:00.000                : Chapter 01
    00:09:59.750                : Chapter 02
    00:17:56.583                : Chapter 03
    00:24:42.542                : Chapter 04
    00:30:34.708                : Chapter 05
    00:36:48.583                : Chapter 06
    00:43:59.625                : Chapter 07
    00:48:47.958                : Chapter 08
    00:53:36.083                : Chapter 09
    01:01:18.958                : Chapter 10
    01:10:46.292                : Chapter 11
    01:23:22.125                : Chapter 12
    01:33:01.708                : Chapter 13
    01:41:35.417                : Chapter 14
    01:46:29.958                : Chapter 15
    01:53:53.208                : Chapter 16
    01:58:50.458                : Chapter 17
    02:04:20.792                : Chapter 18

  • Peso: 3.88 GiB

Sinopsis

Descargar Héroes de guerra (2019) HD 1080p Latino. Después del bombardeo de la OTAN a Yugoslavia en 1999, el ejército yugoslavo se retira de la región de Kosovo, dejando al pueblo serbio a merced de los terroristas albaneses de UCK. Una pequeña banda de soldados debe hacerse cargo del aeropuerto de Slatina y mantenerlo hasta que lleguen las fuerzas de paz rusas.

Español Latino AC3 5.1 Web – Ruso AC3 5.1 BD

Ficha técnica

Video trailer de la película

Enlaces de descarga

Rip de Bluray

Descargar Héroes de guerra (2019) HD 1080p Latino




Aportes de DPeliculasHDmega la pass es:dpeliculashdmega.org Aportes de CinemaniaHD la pass es:cinemaniahdd.com
Guardado en : Acción , Bélica , Drama , HD 1080p

Películas relacionadas

  • Beauty (2022) NF Web-DL 1080p Latino

    Beauty (2022) NF Web-DL 1080p Latino

    2022
    Beauty (2022) NF Web-DL 1080p Latino

    0h 0m 2022

    Descargar Beauty (2022) NF Web-DL 1080p Latino. Una joven y talentosa cantante negra, lucha por mantener...

    Director: Andrew Dosunmu

    Género: Drama

    Actores: Sharon Stone

  • Llamas de venganza (2022) HD 1080p Latino

    Llamas de venganza (2022) HD 1080p Latino

    2022
    Llamas de venganza (2022) HD 1080p Latino

    0h 0m 2022

    Descargar Llamas de venganza (2022) HD 1080p Latino. Andy y Vicky son unos padres que llevan más de...

    Director: Keith Thomas

    Género: Fantasía

    Actores: Zac Efron

Héroes de guerra (2019) HD 1080p Latino pelicula full hd, Héroes de guerra (2019) HD 1080p Latino mega latino, Héroes de guerra (2019) HD 1080p Latino 4k latino, Héroes de guerra (2019) HD 1080p Latino pelicula completa, Héroes de guerra (2019) HD 1080p Latino descargar gratis, descargar Héroes de guerra (2019) HD 1080p Latino pelicula latino, Héroes de guerra (2019) HD 1080p Latino 1 link mega, Héroes de guerra (2019) HD 1080p Latino 1 link google drive, Héroes de guerra (2019) HD 1080p Latino hd 1080p latino.
Comentarios 0