×

¿Problemas para descargar con Mozilla, EDGE? Deshabilita la opción "Abrir vinculos en una pestaña nueva" tal como lo muestra ésta imagen.

HEROES (2007) Segunda Temporada WEB-DL [AMZN] 1080p Latino

815 vistas

Información de HEROES (2007) Segunda Temporada WEB-DL [AMZN] 1080p Latino

Datos de la película

  • Calidad: WEBDL
  • Audio: Español Latino AC3 5.1
  • Subtitulos: No
  • Resolución: 1920x1080p
  • Formato: MKV
  • Codec: H.264
  • Encoder: Dracarys
  • Mediainfo: Clic para Mostrar Datos Ver
  • Format                      : Matroska
    Format version              : Version 4
    File size                   : 5.13 GiB
    Duration                    : 52 min 34 s
    Overall bit rate            : 14.0 Mb/s
    Movie name                  : CinemaniaHDD.net
    Encoded date                : UTC 2020-01-30 03:38:25
    Writing application         : mkvmerge v38.0.0 ('The Silent Type') 64-bit
    Writing library             : libebml v1.3.9 + libmatroska v1.5.2

    Video
    ID                          : 1
    Format                      : AVC
    Format/Info                 : Advanced Video Codec
    Format profile              : High@L4
    Format settings             : CABAC / 4 Ref Frames
    Format settings, CABAC      : Yes
    Format settings, ReFrames   : 4 frames
    Codec ID                    : V_MPEG4/ISO/AVC
    Duration                    : 52 min 34 s
    Bit rate                    : 13.3 Mb/s
    Width                       : 1 920 pixels
    Height                      : 1 080 pixels
    Display aspect ratio        : 16:9
    Frame rate mode             : Constant
    Frame rate                  : 23.976 (24000/1001) FPS
    Color space                 : YUV
    Chroma subsampling          : 4:2:0
    Bit depth                   : 8 bits
    Scan type                   : Progressive
    Bits/(Pixel*Frame)          : 0.268
    Stream size                 : 4.89 GiB (95%)
    Default                     : Yes
    Forced                      : No
    Color range                 : Limited
    Color primaries             : BT.709
    Transfer characteristics    : BT.709
    Matrix coefficients         : BT.709

    Audio
    ID                          : 2
    Format                      : E-AC-3
    Format/Info                 : Enhanced AC-3
    Commercial name             : Dolby Digital Plus
    Codec ID                    : A_EAC3
    Duration                    : 52 min 34 s
    Bit rate mode               : Constant
    Bit rate                    : 640 kb/s
    Channel(s)                  : 6 channels
    Channel layout              : L R C LFE Ls Rs
    Sampling rate               : 48.0 kHz
    Frame rate                  : 31.250 FPS (1536 SPF)
    Compression mode            : Lossy
    Stream size                 : 241 MiB (5%)
    Language                    : Spanish
    Service kind                : Complete Main
    Default                     : Yes
    Forced                      : No

    Text
    ID                          : 3
    Format                      : UTF-8
    Codec ID                    : S_TEXT/UTF8
    Codec ID/Info               : UTF-8 Plain Text
    Duration                    : 40 min 42 s
    Bit rate                    : 9 b/s
    Count of elements           : 103
    Stream size                 : 2.82 KiB (0%)
    Language                    : Spanish
    Default                     : Yes
    Forced                      : Yes

  • Peso: 4.13 GiB X capitulo

Sinopsis

‘Héroes’ es una serie de ciencia ficción que sigue las aventuras de un grupo de personas que descubren que tienen habilidades especiales y paranormales. En diferentes puntos del planeta, gente aparentemente normal descubre que tiene habilidades especiales: telepatía, teletransporte, regeneración celular… Sin tener ni idea de qué les está pasando y cuáles pueden ser las consecuencias, tienen que aprender a controlar sus nuevos poderes.

Claire Bennet (Hayden Panettiere, ‘Nashville’, ‘Scream 4’) es una adolescente animadora que tiene el poder de regenerarse y curándose a una velocidad impresionante, lo que la convierte (aparentemente) una persona inmortal. Isaac Méndez (Santiago Cabrera, ‘Alcatraz’, ‘Merlín’) es un artista que posee la habilidad de plasmar en sus cuadros imágenes del futuro. Hiro Nakamura (Masi Oka, ‘Hawai 5.0’) es un oficinista japonés con poder para congelar, acelerar y moverse en el tiempo. Matt Parkman (Greg Grunberg, ‘Love Bites’, ‘Super 8’) es un policía de Los Ángeles que puede leer el pensamiento.

Ellos, y muchos otros, pronto se dan cuenta de que lo que les está pasando es parte de una evolución que cambiará el mundo para siempre y que organizaciones secretas del gobierno o ajenas a él están dispuestas a todo por conseguir sus poderes y usarlos en su beneficio

Ficha técnica

Video trailer de la película

Enlaces de descarga

Rip de Bluray

Descargar HEROES (2007) Segunda Temporada WEB-DL [AMZN] 1080p Latino




Aportes de DPeliculasHDmega la pass es:dpeliculashdmega.org Aportes de CinemaniaHD la pass es:cinemaniahdd.com
Guardado en : Drama , Sci-Fi & Fantasy , Series

Películas relacionadas

descargar HEROES (2007) Segunda Temporada WEB-DL [AMZN] 1080p Latino WEBDL 1080p gratis, HEROES (2007) Segunda Temporada WEB-DL [AMZN] 1080p Latino WEBDL mega 1 link, HEROES (2007) Segunda Temporada WEB-DL [AMZN] 1080p Latino WEBDL serie completa, descargar HEROES (2007) Segunda Temporada WEB-DL [AMZN] 1080p Latino WEBDL gratis en mega.

HEROES (2007) Segunda Temporada WEB-DL [AMZN] 1080p Latino pelicula full hd, HEROES (2007) Segunda Temporada WEB-DL [AMZN] 1080p Latino mega latino, HEROES (2007) Segunda Temporada WEB-DL [AMZN] 1080p Latino 4k latino, HEROES (2007) Segunda Temporada WEB-DL [AMZN] 1080p Latino pelicula completa, HEROES (2007) Segunda Temporada WEB-DL [AMZN] 1080p Latino descargar gratis, descargar HEROES (2007) Segunda Temporada WEB-DL [AMZN] 1080p Latino pelicula latino, HEROES (2007) Segunda Temporada WEB-DL [AMZN] 1080p Latino 1 link mega, HEROES (2007) Segunda Temporada WEB-DL [AMZN] 1080p Latino 1 link google drive, HEROES (2007) Segunda Temporada WEB-DL [AMZN] 1080p Latino hd 1080p latino.
Comentarios 2
  • neithan - 27 marzo, 2020

    buenisima serie, gracias por compartirla, a la espera de las demas temporadas.

  • noemi - 12 marzo, 2020

    Que buenos recuerdos con esta serie!! pero fue cancelada 🙁