×

¿Problemas para descargar con Mozilla, EDGE? Deshabilita la opción "Abrir vinculos en una pestaña nueva" tal como lo muestra ésta imagen.

HEROES (2007) Segunda Temporada WEB-DL 1080p Latino – CMHDD

110 vistas

Información de HEROES (2007) Segunda Temporada WEB-DL 1080p Latino – CMHDD

Datos de la película

  • Calidad: WEBDL
  • Audio: Español Latino AC3 2.0
  • Subtitulos: FORZADOS SRT
  • Resolución: 19201080p
  • Formato: MKV
  • Codec: H.264
  • Encoder: Dracarys
  • Mediainfo: Clic para Mostrar Datos Ver
  • Format                      : Matroska
    Format version              : Version 4
    File size                   : 3.76 GiB
    Duration                    : 52 min 34 s
    Overall bit rate            : 10.3 Mb/s
    Movie name                  : HEROES (2007) [S02E01] WEB-DL 1080p Latino - CMHDD
    Encoded date                : UTC 2023-11-20 23:33:36
    Writing application         : mkvmerge v47.0.0 ('Black Flag') 64-bit
    Writing library             : libebml v1.3.10 + libmatroska v1.5.2

    Video
    ID                          : 1
    Format                      : AVC
    Format/Info                 : Advanced Video Codec
    Format profile              : High@L4
    Format settings             : CABAC / 4 Ref Frames
    Format settings, CABAC      : Yes
    Format settings, Reference  : 4 frames
    Codec ID                    : V_MPEG4/ISO/AVC
    Duration                    : 52 min 34 s
    Bit rate mode               : Constant
    Bit rate                    : 10 000 kb/s
    Width                       : 1 920 pixels
    Height                      : 1 080 pixels
    Display aspect ratio        : 16:9
    Frame rate mode             : Constant
    Frame rate                  : 23.976 (24000/1001) FPS
    Color space                 : YUV
    Chroma subsampling          : 4:2:0
    Bit depth                   : 8 bits
    Scan type                   : Progressive
    Bits/(Pixel*Frame)          : 0.201
    Stream size                 : 3.53 GiB (94%)
    Default                     : Yes
    Forced                      : No
    Color range                 : Limited
    Color primaries             : BT.709
    Transfer characteristics    : BT.709
    Matrix coefficients         : BT.709

    Audio
    ID                          : 2
    Format                      : E-AC-3
    Format/Info                 : Enhanced AC-3
    Commercial name             : Dolby Digital Plus
    Codec ID                    : A_EAC3
    Duration                    : 52 min 34 s
    Bit rate mode               : Constant
    Bit rate                    : 640 kb/s
    Channel(s)                  : 6 channels
    Channel layout              : L R C LFE Ls Rs
    Sampling rate               : 48.0 kHz
    Frame rate                  : 31.250 FPS (1536 SPF)
    Compression mode            : Lossy
    Stream size                 : 241 MiB (6%)
    Language                    : Spanish
    Service kind                : Complete Main
    Default                     : Yes
    Forced                      : No

    Text
    ID                          : 3
    Format                      : UTF-8
    Codec ID                    : S_TEXT/UTF8
    Codec ID/Info               : UTF-8 Plain Text
    Duration                    : 40 min 42 s
    Bit rate                    : 9 b/s
    Frame rate                  : 0.042 FPS
    Count of elements           : 103
    Stream size                 : 2.82 KiB (0%)
    Language                    : Spanish
    Default                     : Yes
    Forced                      : Yes

    Menu
    00:00:00.000                : en:Title Sequence
    00:00:11.000                : en:Previously On
    00:01:50.000                : en:A spectator tries to talk to Suresh about a job
    00:03:55.000                : en:Maya and Alejandro run from the police
    00:05:34.000                : en:Claire and her father talk about the first day
    00:08:19.000                : en:Hiro gets caught up in a past fight
    00:10:29.000                : en:Matt goes through a field test and gets surprising news
    00:12:35.000                : en:Claire listens to Mr. Zern and meets West
    00:14:38.000                : en:Alejandro and Maya negotiate a ride to the border
    00:15:53.000                : en:Matt picks up Molly and talks to Ms. Gerber
    00:17:30.000                : en:Ando talks to Mr. Nakamura about Hiro's return
    00:19:11.000                : en:Nathan kicks his mom out
    00:20:40.000                : en:Hiro tries to explain to Kensei who he is
    00:22:20.000                : en:Break
    00:22:21.000                : en:The manager talks to Noah about being late
    00:23:26.000                : en:Bob talks to Suresh about his research and the team
    00:25:36.000                : en:Matt tries to talk to Molly about her drawings
    00:27:08.000                : en:The driver pulls Alejandro out for a negotiation
    00:29:22.000                : en:Claire tries to stand up for a classmate
    00:32:30.000                : en:Matt tries to listen in on Molly's dream
    00:33:38.000                : en:Claire attempts a back tuck off the tower
    00:34:22.000                : en:Noah is confronted by his manager
    00:35:30.000                : en:Hiro tries to put fairy tale and facts together
    00:37:55.000                : en:Ando talks to Mr. Nakamura about the situation
    00:40:25.000                : en:Hiro realizes he is altering history and tries to fix it
    00:43:08.000                : en:Break
    00:43:11.000                : en:The family talk about their day as Noah gets a call
    00:45:55.000                : en:Alejandro catches up to the truck and finds Maya crying
    00:47:31.000                : en:Claire calls Nathan for comfort
    00:49:18.000                : en:Mr. Nakamura waits for Ando to return
    00:50:16.000                : en:The bandits try and open up a crate of electronics
    00:51:57.000                : en:End Credits

     

  • Peso: 31.3 GiB

Sinopsis

‘Héroes’ es una serie de ciencia ficción que sigue las aventuras de un grupo de personas que descubren que tienen habilidades especiales y paranormales. En diferentes puntos del planeta, gente aparentemente normal descubre que tiene habilidades especiales: telepatía, teletransporte, regeneración celular… Sin tener ni idea de qué les está pasando y cuáles pueden ser las consecuencias, tienen que aprender a controlar sus nuevos poderes.

Claire Bennet (Hayden Panettiere, ‘Nashville’, ‘Scream 4’) es una adolescente animadora que tiene el poder de regenerarse y curándose a una velocidad impresionante, lo que la convierte (aparentemente) una persona inmortal. Isaac Méndez (Santiago Cabrera, ‘Alcatraz’, ‘Merlín’) es un artista que posee la habilidad de plasmar en sus cuadros imágenes del futuro. Hiro Nakamura (Masi Oka, ‘Hawai 5.0’) es un oficinista japonés con poder para congelar, acelerar y moverse en el tiempo. Matt Parkman (Greg Grunberg, ‘Love Bites’, ‘Super 8’) es un policía de Los Ángeles que puede leer el pensamiento.

Ellos, y muchos otros, pronto se dan cuenta de que lo que les está pasando es parte de una evolución que cambiará el mundo para siempre y que organizaciones secretas del gobierno o ajenas a él están dispuestas a todo por conseguir sus poderes y usarlos en su beneficio.

 

 

Latino: E-AC3 5.1 AMAZON

Ficha técnica

Video trailer de la película

Enlaces de descarga

Rip de Bluray

Descargar HEROES (2007) Segunda Temporada WEB-DL 1080p Latino – CMHDD




Aportes de DPeliculasHDmega la pass es:dpeliculashdmega.org Aportes de CinemaniaHD la pass es:cinemaniahdd.com Aportes recientes:cinemaniahdd.net
Guardado en : Drama , Sci-Fi & Fantasy

Películas relacionadas

descargar HEROES (2007) Segunda Temporada WEB-DL 1080p Latino – CMHDD WEBDL 1080p gratis, HEROES (2007) Segunda Temporada WEB-DL 1080p Latino – CMHDD WEBDL mega 1 link, HEROES (2007) Segunda Temporada WEB-DL 1080p Latino – CMHDD WEBDL pelicula completa, descargar HEROES (2007) Segunda Temporada WEB-DL 1080p Latino – CMHDD WEBDL gratis en mega.

HEROES (2007) Segunda Temporada WEB-DL 1080p Latino – CMHDD pelicula full hd, HEROES (2007) Segunda Temporada WEB-DL 1080p Latino – CMHDD mega latino, HEROES (2007) Segunda Temporada WEB-DL 1080p Latino – CMHDD 4k latino, HEROES (2007) Segunda Temporada WEB-DL 1080p Latino – CMHDD pelicula completa, HEROES (2007) Segunda Temporada WEB-DL 1080p Latino – CMHDD descargar gratis, descargar HEROES (2007) Segunda Temporada WEB-DL 1080p Latino – CMHDD pelicula latino, HEROES (2007) Segunda Temporada WEB-DL 1080p Latino – CMHDD 1 link mega, HEROES (2007) Segunda Temporada WEB-DL 1080p Latino – CMHDD 1 link google drive, HEROES (2007) Segunda Temporada WEB-DL 1080p Latino – CMHDD hd 1080p latino.
Comentarios 0