×

¿Problemas para descargar con Mozilla, EDGE? Deshabilita la opción "Abrir vinculos en una pestaña nueva" tal como lo muestra ésta imagen.

HEROES (2007) Segunda Temporada REMUX 1080p Latino – CMHDD

357 vistas

Información de HEROES (2007) Segunda Temporada REMUX 1080p Latino – CMHDD

Datos de la película

  • Calidad: Full 1080p
  • Audio: Se especifica abajo de la Sinopsis
  • Subtitulos: Español Latino SRT- FORZADOS SRT
  • Resolución: 1920x1080p
  • Formato: MKV
  • Codec: H.264
  • Encoder: Dracarys
  • Mediainfo: Clic para Mostrar Datos Ver
  • Format                      : Matroska
    Format version              : Version 4
    File size                   : 9.59 GiB
    Duration                    : 52 min 35 s
    Overall bit rate mode       : Variable
    Overall bit rate            : 26.1 Mb/s
    Movie name                  : HEROES (2007) [S02E01] REMUX 1080p Latino - CMHDD
    Encoded date                : UTC 2020-10-06 02:55:50
    Writing application         : mkvmerge v51.0.0 ('I Wish') 64-bit
    Writing library             : libebml v1.4.0 + libmatroska v1.6.2

    Video
    ID                          : 1
    Format                      : VC-1
    Format profile              : Advanced@L3
    Codec ID                    : V_MS/VFW/FOURCC / WVC1
    Codec ID/Hint               : Microsoft
    Duration                    : 52 min 34 s
    Bit rate                    : 21.0 Mb/s
    Width                       : 1 920 pixels
    Height                      : 1 080 pixels
    Display aspect ratio        : 16:9
    Frame rate mode             : Constant
    Frame rate                  : 23.976 (24000/1001) FPS
    Color space                 : YUV
    Chroma subsampling          : 4:2:0
    Bit depth                   : 8 bits
    Scan type                   : Progressive
    Compression mode            : Lossy
    Bits/(Pixel*Frame)          : 0.423
    Stream size                 : 7.72 GiB (80%)
    Default                     : Yes
    Forced                      : No

    Audio #1
    ID                          : 2
    Format                      : E-AC-3
    Format/Info                 : Enhanced AC-3
    Commercial name             : Dolby Digital Plus
    Codec ID                    : A_EAC3
    Duration                    : 52 min 34 s
    Bit rate mode               : Constant
    Bit rate                    : 640 kb/s
    Channel(s)                  : 6 channels
    Channel layout              : L R C LFE Ls Rs
    Sampling rate               : 48.0 kHz
    Frame rate                  : 31.250 FPS (1536 SPF)
    Compression mode            : Lossy
    Delay relative to video     : 1 s 0 ms
    Stream size                 : 241 MiB (2%)
    Language                    : Spanish
    Service kind                : Complete Main
    Default                     : Yes
    Forced                      : No

    Audio #2
    ID                          : 3
    Format                      : AC-3
    Format/Info                 : Audio Coding 3
    Commercial name             : Dolby Digital
    Codec ID                    : A_AC3
    Duration                    : 52 min 34 s
    Bit rate mode               : Constant
    Bit rate                    : 640 kb/s
    Channel(s)                  : 6 channels
    Channel layout              : L R C LFE Ls Rs
    Sampling rate               : 48.0 kHz
    Frame rate                  : 31.250 FPS (1536 SPF)
    Compression mode            : Lossy
    Delay relative to video     : 1 s 0 ms
    Stream size                 : 241 MiB (2%)
    Language                    : Spanish
    Service kind                : Complete Main
    Default                     : No
    Forced                      : No

    Audio #3
    ID                          : 4
    Format                      : DTS XLL
    Format/Info                 : Digital Theater Systems
    Commercial name             : DTS-HD Master Audio
    Codec ID                    : A_DTS
    Duration                    : 52 min 34 s
    Bit rate mode               : Variable
    Bit rate                    : 3 811 kb/s
    Channel(s)                  : 6 channels
    Channel layout              : C L R Ls Rs LFE
    Sampling rate               : 48.0 kHz
    Frame rate                  : 93.750 FPS (512 SPF)
    Bit depth                   : 24 bits
    Compression mode            : Lossless
    Stream size                 : 1.40 GiB (15%)
    Language                    : English
    Default                     : No
    Forced                      : No

    Text #1
    ID                          : 5
    Format                      : PGS
    Muxing mode                 : zlib
    Codec ID                    : S_HDMV/PGS
    Codec ID/Info               : Picture based subtitle format used on BDs/HD-DVDs
    Duration                    : 51 min 44 s
    Bit rate                    : 32.8 kb/s
    Count of elements           : 1214
    Stream size                 : 12.1 MiB (0%)
    Language                    : Spanish
    Default                     : No
    Forced                      : No

    Text #2
    ID                          : 6
    Format                      : UTF-8
    Codec ID                    : S_TEXT/UTF8
    Codec ID/Info               : UTF-8 Plain Text
    Duration                    : 51 min 44 s
    Bit rate                    : 51 b/s
    Count of elements           : 607
    Stream size                 : 19.7 KiB (0%)
    Language                    : Spanish
    Default                     : No
    Forced                      : No

    Text #3
    ID                          : 7
    Format                      : UTF-8
    Codec ID                    : S_TEXT/UTF8
    Codec ID/Info               : UTF-8 Plain Text
    Duration                    : 40 min 42 s
    Bit rate                    : 9 b/s
    Count of elements           : 103
    Stream size                 : 2.82 KiB (0%)
    Title                       : Forzados
    Language                    : Spanish
    Default                     : Yes
    Forced                      : No

  • Peso: 94.9 GiB Total

Sinopsis

‘Héroes’ es una serie de ciencia ficción que sigue las aventuras de un grupo de personas que descubren que tienen habilidades especiales y paranormales. En diferentes puntos del planeta, gente aparentemente normal descubre que tiene habilidades especiales: telepatía, teletransporte, regeneración celular… Sin tener ni idea de qué les está pasando y cuáles pueden ser las consecuencias, tienen que aprender a controlar sus nuevos poderes.

Claire Bennet (Hayden Panettiere, ‘Nashville’, ‘Scream 4’) es una adolescente animadora que tiene el poder de regenerarse y curándose a una velocidad impresionante, lo que la convierte (aparentemente) una persona inmortal. Isaac Méndez (Santiago Cabrera, ‘Alcatraz’, ‘Merlín’) es un artista que posee la habilidad de plasmar en sus cuadros imágenes del futuro. Hiro Nakamura (Masi Oka, ‘Hawai 5.0’) es un oficinista japonés con poder para congelar, acelerar y moverse en el tiempo. Matt Parkman (Greg Grunberg, ‘Love Bites’, ‘Super 8’) es un policía de Los Ángeles que puede leer el pensamiento.

Ellos, y muchos otros, pronto se dan cuenta de que lo que les está pasando es parte de una evolución que cambiará el mundo para siempre y que organizaciones secretas del gobierno o ajenas a él están dispuestas a todo por conseguir sus poderes y usarlos en su beneficio.

 

 

Latino: E-AC3 5.1 + AC3 5.1 AMAZON – Ingles: DTS-HD MA 5.1 BluRay

Ficha técnica

Video trailer de la película

Enlaces de descarga

Rip de Bluray

Descargar HEROES (2007) Segunda Temporada REMUX 1080p Latino – CMHDD


Aportes de DPeliculasHDmega la pass es:dpeliculashdmega.org Aportes de CinemaniaHD la pass es:cinemaniahdd.com
Guardado en : Drama , Sci-Fi & Fantasy

Películas relacionadas

descargar HEROES (2007) Segunda Temporada REMUX 1080p Latino – CMHDD Full 1080p 1080p gratis, HEROES (2007) Segunda Temporada REMUX 1080p Latino – CMHDD Full 1080p mega 1 link, HEROES (2007) Segunda Temporada REMUX 1080p Latino – CMHDD Full 1080p pelicula completa, descargar HEROES (2007) Segunda Temporada REMUX 1080p Latino – CMHDD Full 1080p gratis en mega.

HEROES (2007) Segunda Temporada REMUX 1080p Latino – CMHDD pelicula full hd, HEROES (2007) Segunda Temporada REMUX 1080p Latino – CMHDD mega latino, HEROES (2007) Segunda Temporada REMUX 1080p Latino – CMHDD 4k latino, HEROES (2007) Segunda Temporada REMUX 1080p Latino – CMHDD pelicula completa, HEROES (2007) Segunda Temporada REMUX 1080p Latino – CMHDD descargar gratis, descargar HEROES (2007) Segunda Temporada REMUX 1080p Latino – CMHDD pelicula latino, HEROES (2007) Segunda Temporada REMUX 1080p Latino – CMHDD 1 link mega, HEROES (2007) Segunda Temporada REMUX 1080p Latino – CMHDD 1 link google drive, HEROES (2007) Segunda Temporada REMUX 1080p Latino – CMHDD hd 1080p latino.
Comentarios 0