×

¿Problemas para descargar con Mozilla, EDGE? Deshabilita la opción "Abrir vinculos en una pestaña nueva" tal como lo muestra ésta imagen.

HEROES (2006) Primera Temporada WEB-DL 1080p Latino – CMHDD

165 vistas

Información de HEROES (2006) Primera Temporada WEB-DL 1080p Latino – CMHDD

Datos de la película

  • Calidad: WEBDL
  • Audio: Se especifica abajo de la Sinopsis
  • Subtitulos: FORZADOS SRT
  • Resolución: 19201080p
  • Formato: MKV
  • Codec: H.264
  • Encoder: Dracarys
  • Mediainfo: Clic para Mostrar Datos Ver
  • Format                      : Matroska
    Format version              : Version 4
    File size                   : 3.64 GiB
    Duration                    : 53 min 40 s
    Overall bit rate            : 9 717 kb/s
    Movie name                  : HEROES (2007) [S01E01] WEB-DL 1080p Latino - CMHDD
    Encoded date                : UTC 2023-11-20 00:33:11
    Writing application         : mkvmerge v47.0.0 ('Black Flag') 64-bit
    Writing library             : libebml v1.3.10 + libmatroska v1.5.2

    Video
    ID                          : 1
    Format                      : AVC
    Format/Info                 : Advanced Video Codec
    Format profile              : High@L4
    Format settings             : CABAC / 4 Ref Frames
    Format settings, CABAC      : Yes
    Format settings, Reference  : 4 frames
    Codec ID                    : V_MPEG4/ISO/AVC
    Duration                    : 53 min 40 s
    Bit rate mode               : Constant
    Bit rate                    : 9 492 kb/s
    Nominal bit rate            : 10 000 kb/s
    Width                       : 1 920 pixels
    Height                      : 1 080 pixels
    Display aspect ratio        : 16:9
    Frame rate mode             : Constant
    Frame rate                  : 23.976 (24000/1001) FPS
    Color space                 : YUV
    Chroma subsampling          : 4:2:0
    Bit depth                   : 8 bits
    Scan type                   : Progressive
    Bits/(Pixel*Frame)          : 0.191
    Stream size                 : 3.56 GiB (98%)
    Default                     : Yes
    Forced                      : No
    Color range                 : Limited
    Color primaries             : BT.709
    Transfer characteristics    : BT.709
    Matrix coefficients         : BT.709

    Audio
    ID                          : 2
    Format                      : E-AC-3
    Format/Info                 : Enhanced AC-3
    Commercial name             : Dolby Digital Plus
    Codec ID                    : A_EAC3
    Duration                    : 53 min 40 s
    Bit rate mode               : Constant
    Bit rate                    : 224 kb/s
    Channel(s)                  : 2 channels
    Channel layout              : L R
    Sampling rate               : 48.0 kHz
    Frame rate                  : 31.250 FPS (1536 SPF)
    Compression mode            : Lossy
    Stream size                 : 86.0 MiB (2%)
    Language                    : Spanish
    Service kind                : Complete Main
    Default                     : Yes
    Forced                      : No

    Text
    ID                          : 3
    Format                      : UTF-8
    Codec ID                    : S_TEXT/UTF8
    Codec ID/Info               : UTF-8 Plain Text
    Duration                    : 42 min 40 s
    Bit rate                    : 8 b/s
    Frame rate                  : 0.036 FPS
    Count of elements           : 93
    Stream size                 : 2.50 KiB (0%)
    Title                       : F
    Language                    : Spanish
    Default                     : Yes
    Forced                      : Yes

    Menu
    00:00:00.000                : en:Prologue
    00:00:26.000                : en:Title Sequence
    00:00:37.000                : en:Peter has another dream, Suresh's father dies unexpectedly
    00:06:47.000                : en:Niki feels someone is watching her
    00:10:09.000                : en:Claire documents her strange ability
    00:11:05.000                : en:Peter tells his brother where he thinks his dreams are leading him
    00:13:01.000                : en:Claire is a freak show
    00:14:30.000                : en:Hiro breaks the space-time continuum
    00:16:19.000                : en:Micah is kicked out of school
    00:17:53.000                : en:Angela is arrested
    00:20:27.000                : en:Niki is in a world of trouble with the mob
    00:22:47.000                : en:A trail is derailed and Claire saves a passenger
    00:24:50.000                : en:Suresh finds his father's New York hideout
    00:26:12.000                : en:Issac's art is imitating life
    00:28:39.000                : en:Nathan wants Peter to grow up
    00:30:35.000                : en:The heroes struggle with confusion and uncertanty
    00:34:12.000                : en:The mob catches up with Niki and Weasel makes her an offer
    00:36:18.000                : en:Hiro brags about his power, but Ando is reluctant to believe
    00:38:33.000                : en:Weasel won't be bothering Niki anymore
    00:39:28.000                : en:Simone calls Peter with an emergency, Suresh picks up a strange fare
    00:41:13.000                : en:Claire tells her mother about walking through fire
    00:42:52.000                : en:Ando has had enough of Super Hiro and his antics
    00:44:13.000                : en:Simone needs Peter's help
    00:44:48.000                : en:Sandra longs a mother-dauthter bond with Claire
    00:47:30.000                : en:Hiro takes a trip to New York
    00:48:44.000                : en:Issac is at death's door
    00:50:18.000                : en:Peter realizes his destiny
    00:52:44.000                : en:End Credits

     

  • Peso: 69.6 GiB

Sinopsis

‘Héroes’ es una serie de ciencia ficción que sigue las aventuras de un grupo de personas que descubren que tienen habilidades especiales y paranormales. En diferentes puntos del planeta, gente aparentemente normal descubre que tiene habilidades especiales: telepatía, teletransporte, regeneración celular… Sin tener ni idea de qué les está pasando y cuáles pueden ser las consecuencias, tienen que aprender a controlar sus nuevos poderes.

Claire Bennet (Hayden Panettiere, ‘Nashville’, ‘Scream 4’) es una adolescente animadora que tiene el poder de regenerarse y curándose a una velocidad impresionante, lo que la convierte (aparentemente) una persona inmortal. Isaac Méndez (Santiago Cabrera, ‘Alcatraz’, ‘Merlín’) es un artista que posee la habilidad de plasmar en sus cuadros imágenes del futuro. Hiro Nakamura (Masi Oka, ‘Hawai 5.0’) es un oficinista japonés con poder para congelar, acelerar y moverse en el tiempo. Matt Parkman (Greg Grunberg, ‘Love Bites’, ‘Super 8’) es un policía de Los Ángeles que puede leer el pensamiento.

Ellos, y muchos otros, pronto se dan cuenta de que lo que les está pasando es parte de una evolución que cambiará el mundo para siempre y que organizaciones secretas del gobierno o ajenas a él están dispuestas a todo por conseguir sus poderes y usarlos en su beneficio.

 

Latino: E-AC3 AMAZON

Ficha técnica

Video trailer de la película

Enlaces de descarga

Rip de Bluray

Descargar HEROES (2006) Primera Temporada WEB-DL 1080p Latino – CMHDD




Aportes de DPeliculasHDmega la pass es:dpeliculashdmega.org Aportes de CinemaniaHD la pass es:cinemaniahdd.com Aportes recientes:cinemaniahdd.net
Guardado en : Drama , Sci-Fi & Fantasy

Películas relacionadas

descargar HEROES (2006) Primera Temporada WEB-DL 1080p Latino – CMHDD WEBDL 1080p gratis, HEROES (2006) Primera Temporada WEB-DL 1080p Latino – CMHDD WEBDL mega 1 link, HEROES (2006) Primera Temporada WEB-DL 1080p Latino – CMHDD WEBDL pelicula completa, descargar HEROES (2006) Primera Temporada WEB-DL 1080p Latino – CMHDD WEBDL gratis en mega.

HEROES (2006) Primera Temporada WEB-DL 1080p Latino – CMHDD pelicula full hd, HEROES (2006) Primera Temporada WEB-DL 1080p Latino – CMHDD mega latino, HEROES (2006) Primera Temporada WEB-DL 1080p Latino – CMHDD 4k latino, HEROES (2006) Primera Temporada WEB-DL 1080p Latino – CMHDD pelicula completa, HEROES (2006) Primera Temporada WEB-DL 1080p Latino – CMHDD descargar gratis, descargar HEROES (2006) Primera Temporada WEB-DL 1080p Latino – CMHDD pelicula latino, HEROES (2006) Primera Temporada WEB-DL 1080p Latino – CMHDD 1 link mega, HEROES (2006) Primera Temporada WEB-DL 1080p Latino – CMHDD 1 link google drive, HEROES (2006) Primera Temporada WEB-DL 1080p Latino – CMHDD hd 1080p latino.
Comentarios 0