×

¿Problemas para descargar con Mozilla, EDGE? Deshabilita la opción "Abrir vinculos en una pestaña nueva" tal como lo muestra ésta imagen.

HEROES (2006) Primera Temporada REMUX 1080p Latino – CMHDD

426 vistas

Información de HEROES (2006) Primera Temporada REMUX 1080p Latino – CMHDD

Datos de la película

  • Calidad: Full 1080p
  • Audio: Se especifica abajo de la Sinopsis
  • Subtitulos: Español Latino SRT- FORZADOS SRT
  • Resolución: 1920x1080p
  • Formato: MKV
  • Codec: H.264
  • Encoder: Dracarys
  • Mediainfo: Clic para Mostrar Datos Ver
  • Format                      : Matroska
    Format version              : Version 4
    File size                   : 9.18 GiB
    Duration                    : 53 min 18 s
    Overall bit rate mode       : Variable
    Overall bit rate            : 24.7 Mb/s
    Movie name                  : HEROES (2007) [S01E01] REMUX 1080p Latino - CMHDD
    Encoded date                : UTC 2020-09-19 19:05:45
    Writing application         : mkvmerge v46.0.0 ('No Deeper Escape') 64-bit
    Writing library             : libebml v1.3.10 + libmatroska v1.5.2

    Video
    ID                          : 1
    Format                      : VC-1
    Format profile              : Advanced@L3
    Codec ID                    : V_MS/VFW/FOURCC / WVC1
    Codec ID/Hint               : Microsoft
    Duration                    : 53 min 17 s
    Bit rate                    : 19.8 Mb/s
    Width                       : 1 920 pixels
    Height                      : 1 080 pixels
    Display aspect ratio        : 16:9
    Frame rate mode             : Constant
    Frame rate                  : 23.976 (24000/1001) FPS
    Color space                 : YUV
    Chroma subsampling          : 4:2:0
    Bit depth                   : 8 bits
    Scan type                   : Progressive
    Compression mode            : Lossy
    Bits/(Pixel*Frame)          : 0.399
    Stream size                 : 7.38 GiB (80%)
    Language                    : English
    Default                     : Yes
    Forced                      : No

    Audio #1
    ID                          : 2
    Format                      : E-AC-3
    Format/Info                 : Enhanced AC-3
    Commercial name             : Dolby Digital Plus
    Codec ID                    : A_EAC3
    Duration                    : 53 min 16 s
    Bit rate mode               : Constant
    Bit rate                    : 224 kb/s
    Channel(s)                  : 2 channels
    Channel layout              : L R
    Sampling rate               : 48.0 kHz
    Frame rate                  : 31.250 FPS (1536 SPF)
    Compression mode            : Lossy
    Delay relative to video     : 1 s 0 ms
    Stream size                 : 85.4 MiB (1%)
    Language                    : Spanish
    Service kind                : Complete Main
    Default                     : Yes
    Forced                      : No

    Audio #2
    ID                          : 3
    Format                      : AC-3
    Format/Info                 : Audio Coding 3
    Commercial name             : Dolby Digital
    Codec ID                    : A_AC3
    Duration                    : 53 min 16 s
    Bit rate mode               : Constant
    Bit rate                    : 320 kb/s
    Channel(s)                  : 2 channels
    Channel layout              : L R
    Sampling rate               : 48.0 kHz
    Frame rate                  : 31.250 FPS (1536 SPF)
    Compression mode            : Lossy
    Delay relative to video     : 2 s 0 ms
    Stream size                 : 122 MiB (1%)
    Language                    : Spanish
    Service kind                : Complete Main
    Default                     : No
    Forced                      : No

    Audio #3
    ID                          : 4
    Format                      : DTS XLL
    Format/Info                 : Digital Theater Systems
    Commercial name             : DTS-HD Master Audio
    Codec ID                    : A_DTS
    Duration                    : 53 min 17 s
    Bit rate mode               : Variable
    Bit rate                    : 4 271 kb/s
    Channel(s)                  : 6 channels
    Channel layout              : C L R Ls Rs LFE
    Sampling rate               : 48.0 kHz
    Frame rate                  : 93.750 FPS (512 SPF)
    Bit depth                   : 24 bits
    Compression mode            : Lossless
    Stream size                 : 1.59 GiB (17%)
    Language                    : English
    Default                     : No
    Forced                      : No

    Text #1
    ID                          : 5
    Format                      : UTF-8
    Codec ID                    : S_TEXT/UTF8
    Codec ID/Info               : UTF-8 Plain Text
    Duration                    : 42 min 40 s
    Bit rate                    : 7 b/s
    Count of elements           : 93
    Stream size                 : 2.50 KiB (0%)
    Title                       : Forzados
    Language                    : Spanish
    Default                     : Yes
    Forced                      : No

    Text #2
    ID                          : 6
    Format                      : UTF-8
    Codec ID                    : S_TEXT/UTF8
    Codec ID/Info               : UTF-8 Plain Text
    Duration                    : 52 min 42 s
    Bit rate                    : 64 b/s
    Count of elements           : 718
    Stream size                 : 24.9 KiB (0%)
    Language                    : Spanish
    Default                     : No
    Forced                      : No

    Text #3
    ID                          : 7
    Format                      : PGS
    Muxing mode                 : zlib
    Codec ID                    : S_HDMV/PGS
    Codec ID/Info               : Picture based subtitle format used on BDs/HD-DVDs
    Duration                    : 52 min 42 s
    Bit rate                    : 40.6 kb/s
    Count of elements           : 1436
    Stream size                 : 15.3 MiB (0%)
    Language                    : Spanish
    Default                     : No
    Forced                      : No

    Menu
    00:00:00.000                : en: Chapter 1
    00:11:06.791                : en: Chapter 2
    00:24:50.989                : en: Chapter 3
    00:39:28.866                : en: Chapter 4

  • Peso: 173 GiB Total

Sinopsis

‘Héroes’ es una serie de ciencia ficción que sigue las aventuras de un grupo de personas que descubren que tienen habilidades especiales y paranormales. En diferentes puntos del planeta, gente aparentemente normal descubre que tiene habilidades especiales: telepatía, teletransporte, regeneración celular… Sin tener ni idea de qué les está pasando y cuáles pueden ser las consecuencias, tienen que aprender a controlar sus nuevos poderes.

Claire Bennet (Hayden Panettiere, ‘Nashville’, ‘Scream 4’) es una adolescente animadora que tiene el poder de regenerarse y curándose a una velocidad impresionante, lo que la convierte (aparentemente) una persona inmortal. Isaac Méndez (Santiago Cabrera, ‘Alcatraz’, ‘Merlín’) es un artista que posee la habilidad de plasmar en sus cuadros imágenes del futuro. Hiro Nakamura (Masi Oka, ‘Hawai 5.0’) es un oficinista japonés con poder para congelar, acelerar y moverse en el tiempo. Matt Parkman (Greg Grunberg, ‘Love Bites’, ‘Super 8’) es un policía de Los Ángeles que puede leer el pensamiento.

Ellos, y muchos otros, pronto se dan cuenta de que lo que les está pasando es parte de una evolución que cambiará el mundo para siempre y que organizaciones secretas del gobierno o ajenas a él están dispuestas a todo por conseguir sus poderes y usarlos en su beneficio.

 

Latino: E-AC3 + AC3 2.0 AMAZONIngles: DTS-HD MA 5.1 BluRay

Ficha técnica

Video trailer de la película

Enlaces de descarga

Rip de Bluray

Descargar HEROES (2006) Primera Temporada REMUX 1080p Latino – CMHDD


Aportes de DPeliculasHDmega la pass es:dpeliculashdmega.org Aportes de CinemaniaHD la pass es:cinemaniahdd.com
Guardado en : Drama , Sci-Fi & Fantasy

Películas relacionadas

descargar HEROES (2006) Primera Temporada REMUX 1080p Latino – CMHDD Full 1080p 1080p gratis, HEROES (2006) Primera Temporada REMUX 1080p Latino – CMHDD Full 1080p mega 1 link, HEROES (2006) Primera Temporada REMUX 1080p Latino – CMHDD Full 1080p pelicula completa, descargar HEROES (2006) Primera Temporada REMUX 1080p Latino – CMHDD Full 1080p gratis en mega.

HEROES (2006) Primera Temporada REMUX 1080p Latino – CMHDD pelicula full hd, HEROES (2006) Primera Temporada REMUX 1080p Latino – CMHDD mega latino, HEROES (2006) Primera Temporada REMUX 1080p Latino – CMHDD 4k latino, HEROES (2006) Primera Temporada REMUX 1080p Latino – CMHDD pelicula completa, HEROES (2006) Primera Temporada REMUX 1080p Latino – CMHDD descargar gratis, descargar HEROES (2006) Primera Temporada REMUX 1080p Latino – CMHDD pelicula latino, HEROES (2006) Primera Temporada REMUX 1080p Latino – CMHDD 1 link mega, HEROES (2006) Primera Temporada REMUX 1080p Latino – CMHDD 1 link google drive, HEROES (2006) Primera Temporada REMUX 1080p Latino – CMHDD hd 1080p latino.
Comentarios 0