×

¿Problemas para descargar con Mozilla, EDGE? Deshabilita la opción "Abrir vinculos en una pestaña nueva" tal como lo muestra ésta imagen.

Héroe Por Encargo (2023) REMUX 1080p Latino

34 vistas

Información de Héroe Por Encargo (2023) REMUX 1080p Latino

Datos de la película

  • Calidad: Full 1080p
  • Audio: Español Latino AC3 5.1 WEB-DL - Ingles DTS 5.1 BLURAY
  • Subtitulos: Español Latino SRT- FORZADOS SRT
  • Resolución: 1920x1080p
  • Formato: MKV
  • Codec: H.264
  • Encoder: Melkor
  • Mediainfo: Clic para Mostrar Datos Ver
  • Heroe Por Encargo (2023) REMUX 1080p Latino.mkv
    Format                      : Matroska
    Format version              : Version 4
    File size                   : 24.5 GiB
    Duration                    : 1 h 48 min
    Overall bit rate mode       : Variable
    Overall bit rate            : 32.3 Mb/s
    Movie name                  : Freelance (2023) CinemaniaHDD.Net
    Encoded date                : UTC 2024-03-25 05:22:27
    Writing application         : mkvmerge v56.1.0 ('My Friend') 64-bit
    Writing library             : libebml v1.4.2 + libmatroska v1.6.4
    Cover                       : Yes
    Attachments                 : cover.jpg / CINEMANIAHD.png
    Site                        : CinemaniaHDD.Net
    Uploader                    : Melkor

    Video
    ID                          : 1
    ID in the original source m : 4113 (0x1011)
    Format                      : AVC
    Format/Info                 : Advanced Video Codec
    Format profile              : High@L4.1
    Format settings             : CABAC / 3 Ref Frames
    Format settings, CABAC      : Yes
    Format settings, Reference  : 3 frames
    Codec ID                    : V_MPEG4/ISO/AVC
    Duration                    : 1 h 48 min
    Bit rate mode               : Variable
    Bit rate                    : 29.9 Mb/s
    Maximum bit rate            : 35.0 Mb/s
    Width                       : 1 920 pixels
    Height                      : 1 080 pixels
    Display aspect ratio        : 16:9
    Frame rate mode             : Constant
    Frame rate                  : 23.976 (24000/1001) FPS
    Color space                 : YUV
    Chroma subsampling          : 4:2:0
    Bit depth                   : 8 bits
    Scan type                   : Progressive
    Bits/(Pixel*Frame)          : 0.602
    Stream size                 : 22.7 GiB (93%)
    Title                       : REMUX HD1080p [CinemaniaHDD]
    Default                     : Yes
    Forced                      : Yes
    Original source medium      : Blu-ray

    Audio #1
    ID                          : 2
    Format                      : AC-3
    Format/Info                 : Audio Coding 3
    Commercial name             : Dolby Digital
    Codec ID                    : A_AC3
    Duration                    : 1 h 48 min
    Bit rate mode               : Constant
    Bit rate                    : 384 kb/s
    Channel(s)                  : 6 channels
    Channel layout              : L R C LFE Ls Rs
    Sampling rate               : 48.0 kHz
    Frame rate                  : 31.250 FPS (1536 SPF)
    Compression mode            : Lossy
    Stream size                 : 298 MiB (1%)
    Title                       : Español Latino [CinemaniaHDD]
    Language                    : Spanish
    Service kind                : Complete Main
    Default                     : Yes
    Forced                      : Yes

    Audio #2
    ID                          : 3
    ID in the original source m : 4353 (0x1101)
    Format                      : DTS XLL
    Format/Info                 : Digital Theater Systems
    Commercial name             : DTS-HD Master Audio
    Codec ID                    : A_DTS
    Duration                    : 1 h 48 min
    Bit rate mode               : Variable
    Bit rate                    : 1 966 kb/s
    Channel(s)                  : 6 channels
    Channel layout              : C L R Ls Rs LFE
    Sampling rate               : 48.0 kHz
    Frame rate                  : 93.750 FPS (512 SPF)
    Bit depth                   : 16 bits
    Compression mode            : Lossless
    Stream size                 : 1.49 GiB (6%)
    Title                       : Ingles [CinemaniaHDD]
    Language                    : English
    Default                     : No
    Forced                      : No
    Original source medium      : Blu-ray

    Text #1
    ID                          : 4
    Format                      : UTF-8
    Codec ID                    : S_TEXT/UTF8
    Codec ID/Info               : UTF-8 Plain Text
    Duration                    : 1 h 28 min
    Bit rate                    : 0 b/s
    Count of elements           : 6
    Stream size                 : 275 Bytes (0%)
    Title                       : Forzados-SRT [CinemaniaHDD]
    Language                    : Spanish
    Default                     : Yes
    Forced                      : Yes

    Text #2
    ID                          : 5
    Format                      : UTF-8
    Codec ID                    : S_TEXT/UTF8
    Codec ID/Info               : UTF-8 Plain Text
    Duration                    : 1 h 43 min
    Bit rate                    : 54 b/s
    Count of elements           : 1269
    Stream size                 : 41.2 KiB (0%)
    Title                       : Español-SRT [CinemaniaHDD]
    Language                    : Spanish
    Default                     : No
    Forced                      : No

    Text #3
    ID                          : 6
    Format                      : PGS
    Muxing mode                 : zlib
    Codec ID                    : S_HDMV/PGS
    Codec ID/Info               : Picture based subtitle format used on BDs/HD-DVDs
    Duration                    : 1 h 15 min
    Bit rate                    : 2 049 b/s
    Count of elements           : 128
    Stream size                 : 1.10 MiB (0%)
    Title                       : Ingles [CinemaniaHDD]
    Language                    : English
    Default                     : No
    Forced                      : Yes

    Menu
    00:00:00.000                : Chapter 01
    00:09:28.568                : Chapter 02
    00:20:52.417                : Chapter 03
    00:29:16.713                : Chapter 04
    00:38:51.829                : Chapter 05
    00:49:16.954                : Chapter 06
    00:55:45.842                : Chapter 07
    01:04:29.407                : Chapter 08
    01:13:22.648                : Chapter 09
    01:22:14.638                : Chapter 10
    01:31:53.424                : Chapter 11
    01:43:10.017                : Chapter 12

  • Peso: 24.5 GiB

Sinopsis

Descargar Héroe Por Encargo (2023) REMUX 1080p Latino. Un ex agente de las fuerzas especiales acepta un trabajo para brindar seguridad a una periodista mientras entrevista a un dictador, pero cuando estalla un golpe militar en medio de la entrevista, se ven obligados a escapar a la jungla.

Ficha técnica

Video trailer de la película

Enlaces de descarga

Rip de Bluray

Descargar Héroe Por Encargo (2023) REMUX 1080p Latino




Aportes de DPeliculasHDmega la pass es:dpeliculashdmega.org Aportes de CinemaniaHD la pass es:cinemaniahdd.com Aportes recientes:cinemaniahdd.net
Guardado en : Acción , Comedia , Remux

Películas relacionadas

descargar Héroe Por Encargo (2023) REMUX 1080p Latino Full 1080p 1080p gratis, Héroe Por Encargo (2023) REMUX 1080p Latino Full 1080p mega 1 link, Héroe Por Encargo (2023) REMUX 1080p Latino Full 1080p pelicula completa, descargar Héroe Por Encargo (2023) REMUX 1080p Latino Full 1080p gratis en mega.

Héroe Por Encargo (2023) REMUX 1080p Latino pelicula full hd, Héroe Por Encargo (2023) REMUX 1080p Latino mega latino, Héroe Por Encargo (2023) REMUX 1080p Latino 4k latino, Héroe Por Encargo (2023) REMUX 1080p Latino pelicula completa, Héroe Por Encargo (2023) REMUX 1080p Latino descargar gratis, descargar Héroe Por Encargo (2023) REMUX 1080p Latino pelicula latino, Héroe Por Encargo (2023) REMUX 1080p Latino 1 link mega, Héroe Por Encargo (2023) REMUX 1080p Latino 1 link google drive, Héroe Por Encargo (2023) REMUX 1080p Latino hd 1080p latino.
Comentarios 0